<?xml version="1.0" standalone="no"?>
<!DOCTYPE svg PUBLIC "-//W3C//DTD SVG 1.1//EN" "http://www.w3.org/Graphics/SVG/1.1/DTD/svg11.dtd" >
<svg xmlns="http://www.w3.org/2000/svg">
<metadata></metadata>
<defs>
<font id="Font-APEX-Large" horiz-adv-x="1024">
<font-face units-per-em="1024" ascent="960" descent="-64" />
<missing-glyph horiz-adv-x="1024" />
<glyph unicode="&#x20;" horiz-adv-x="512" d="" />
<glyph unicode="&#x2639;" glyph-name="emoji-frown" d="M448 528c0-26.51-14.327-48-32-48s-32 21.49-32 48c0 26.51 14.327 48 32 48s32-21.49 32-48zM640 528c0-26.51-14.327-48-32-48s-32 21.49-32 48c0 26.51 14.327 48 32 48s32-21.49 32-48zM512 832c-211.744 0-384-172.256-384-384s172.256-384 384-384 384 172.256 384 384-172.256 384-384 384zM512 96c-194.080 0-352 157.92-352 352s157.92 352 352 352 352-157.92 352-352-157.92-352-352-352zM512 384c-72.032 0-137.344-40.128-170.432-104.704-4.032-7.872-0.928-17.504 6.944-21.536s17.504-0.928 21.536 6.944c27.584 53.856 81.984 87.296 141.952 87.296s114.368-33.44 141.984-87.296c2.816-5.536 8.416-8.704 14.24-8.704 2.464 0 4.928 0.576 7.296 1.76 7.872 4.032 10.976 13.664 6.944 21.536-33.12 64.576-98.432 104.704-170.464 104.704z" />
<glyph unicode="&#x263a;" glyph-name="emoji-pleased" d="M640 448c-28.064 0-53.376-17.024-62.976-42.336-3.136-8.256 1.024-17.504 9.312-20.64s17.504 1.024 20.64 9.28c4.896 12.992 18.176 21.696 33.024 21.696s28.128-8.704 33.024-21.664c3.136-8.256 12.384-12.416 20.64-9.28s12.416 12.352 9.312 20.64c-9.6 25.312-34.912 42.304-62.976 42.304zM384 416c14.848 0 28.128-8.704 33.024-21.664 3.136-8.256 12.384-12.416 20.64-9.28s12.416 12.352 9.312 20.64c-9.6 25.312-34.912 42.304-62.976 42.304s-53.376-17.024-62.976-42.336c-3.136-8.256 1.024-17.504 9.312-20.64 8.256-3.136 17.504 1.024 20.64 9.28 4.896 12.992 18.176 21.696 33.024 21.696zM644.448 315.072c-36.416-38.112-83.456-59.072-132.448-59.072s-96.032 20.96-132.448 59.072c-6.112 6.4-16.256 6.592-22.624 0.512-6.368-6.112-6.624-16.224-0.512-22.624 42.528-44.48 97.76-68.96 155.584-68.96s113.056 24.48 155.552 68.928c6.112 6.4 5.888 16.512-0.512 22.624-6.368 6.112-16.48 5.888-22.592-0.48zM512 832c-211.744 0-384-172.256-384-384s172.256-384 384-384 384 172.256 384 384-172.256 384-384 384zM512 96c-194.080 0-352 157.92-352 352s157.92 352 352 352 352-157.92 352-352-157.92-352-352-352zM626.944 607.744c-8.704 1.632-17.056-4.128-18.656-12.8-1.632-8.672 4.096-17.056 12.768-18.656 35.616-6.656 66.752-27.36 85.408-56.832 3.072-4.832 8.256-7.456 13.536-7.456 2.912 0 5.888 0.8 8.544 2.496 7.456 4.736 9.696 14.624 4.96 22.080-23.424 36.96-62.24 62.88-106.56 71.168zM402.944 576.256c8.672 1.632 14.4 9.984 12.768 18.656-1.6 8.672-9.92 14.432-18.656 12.8-44.32-8.256-83.168-34.208-106.592-71.168-4.736-7.456-2.528-17.344 4.96-22.080 2.656-1.664 5.632-2.464 8.576-2.464 5.312 0 10.496 2.624 13.536 7.424 18.656 29.504 49.792 50.208 85.408 56.832z" />
<glyph unicode="&#xe903;" glyph-name="apex" d="M355.968 459.968l24 24-218.016 218.016 96.096 96.096 50.976-50.976-48.224-48.256 17.984-18.016 48.224 48.224 36.992-36.992-48.192-48.224 18.016-18.016 48.224 48.224 36.992-37.024-48.224-48.256 18.016-17.952 48.192 48.224 39.008-39.008 24 24-218.016 218.016c-6.624 6.624-15.296 9.952-24 9.952-8.672 0-17.376-3.328-24-9.952l-96.064-96.064c-13.248-13.248-13.248-34.752 0-48l218.016-218.016zM668.032 436.064l-24-24 38.976-38.976-48.224-48.224 18.016-18.016 48.224 48.224 36.992-37.024-48.224-48.256 18.016-17.952 48.192 48.224 37.024-37.024-48.224-48.224 18.016-18.016 48.224 48.224 50.976-50.976-96.096-96.096-218.016 218.016-24-24 218.016-218.016c6.688-6.624 15.36-9.952 24.064-9.952 8.672 0 17.376 3.328 24 9.952l96.096 96.096c13.248 13.248 13.248 34.752 0 48l-218.048 218.016zM864.96 801.12c-15.648 15.616-36.736 23.040-58.112 23.040-23.744 0-47.872-9.184-65.216-26.56l-486.112-486.112c-13.696-13.696-24.928-29.632-33.248-47.104l-70.624-148.48c-7.104-14.944 4.576-30.4 19.040-30.4 3.008 0 6.112 0.672 9.216 2.144l148.48 70.624c17.472 8.32 33.408 19.552 47.104 33.248l491.584 491.552c33.152 33.152 31.072 84.896-2.112 118.048zM730.272 738.272l72-72-37.664-37.664-72 72 37.664 37.664zM197.664 133.664l55.232 116.128c0.928 1.952 2.24 3.68 3.264 5.6l63.232-63.232c-1.92-1.024-3.616-2.336-5.6-3.264l-116.128-55.232zM351.488 215.488c-1.248-1.248-2.752-2.208-4.032-3.392l-71.36 71.36c1.184 1.312 2.144 2.784 3.392 4.032l395.104 395.104 72-72-395.104-395.104zM843.072 707.072l-22.784-22.784-72 72 17.312 17.312c10.4 10.4 25.824 16.608 41.248 16.608 13.536 0 25.632-4.672 34.144-13.12 10.304-10.272 16-23.392 16-36.96 0-8.736-2.4-21.536-13.92-33.056z" />
<glyph unicode="&#xe904;" glyph-name="apex-square" d="M722.592 692.448c-11.008 0-22.016-4.448-29.44-11.872l-12.352-12.352 51.424-51.424 16.256 16.256c8.224 8.224 9.952 17.376 9.952 23.616 0 9.664-4.064 19.040-11.424 26.4-6.080 6.048-14.752 9.376-24.416 9.376zM640.999 628.438l26.904 26.904 51.432-51.432-26.904-26.904-51.432 51.432zM326.912 306.432l-39.456-82.944 82.944 39.456c1.408 0.672 2.624 1.6 4 2.336l-45.152 45.152c-0.704-1.376-1.664-2.592-2.336-4zM345.92 333.344c-0.896-0.896-1.568-1.952-2.432-2.88l50.976-50.976c0.928 0.864 1.984 1.536 2.88 2.432l282.208 282.208-51.424 51.424-282.208-282.208zM786.272 832h-548.544c-60.608 0-109.728-49.12-109.728-109.728v-548.576c0-60.576 49.12-109.696 109.728-109.696h548.576c60.576 0 109.696 49.12 109.696 109.728v548.544c0 60.608-49.12 109.728-109.728 109.728zM244.8 646.56l68.64 68.64c4.736 4.736 10.944 7.104 17.152 7.104s12.416-2.368 17.152-7.104l155.744-155.744-17.152-17.152-27.872 27.84-34.432-34.464-12.896 12.832 34.464 34.464-26.432 26.432-34.432-34.432-12.864 12.864 34.432 34.432-26.432 26.432-34.464-34.464-12.832 12.96 34.432 34.432-36.448 36.416-68.608-68.64 155.744-155.744-17.152-17.152-155.744 155.776c-9.44 9.44-9.44 24.8 0 34.272zM380.832 241.024l-106.048-50.432c-2.208-1.056-4.448-1.536-6.592-1.536-10.336 0-18.688 11.040-13.6 21.728l50.432 106.048c5.952 12.48 13.984 23.872 23.744 33.664l347.232 347.232c12.416 12.416 29.632 18.976 46.592 18.976 15.264 0 30.336-5.312 41.504-16.448 23.712-23.68 25.184-60.608 1.504-84.32l-351.104-351.136c-9.792-9.792-21.152-17.824-33.664-23.776zM779.2 249.44l-68.64-68.64c-4.736-4.736-10.944-7.104-17.152-7.104s-12.416 2.368-17.152 7.104l-155.744 155.744 17.152 17.152 155.744-155.744 68.64 68.64-36.416 36.416-34.464-34.464-12.896 12.896 34.464 34.464-26.432 26.432-34.432-34.464-12.864 12.832 34.464 34.464-26.432 26.432-34.432-34.432-12.896 12.896 34.432 34.432-27.84 27.84 17.152 17.152 155.744-155.744c9.44-9.472 9.44-24.832 0-34.304z" />
<glyph unicode="&#xe905;" glyph-name="bar-chart-horizontal" d="M944 160h-848v96h464c8.837 0 16 7.163 16 16v0 192c0 8.837-7.163 16-16 16v0h-464v64h784c8.837 0 16 7.163 16 16v0 192c0 8.837-7.163 16-16 16v0h-784v48c0 8.837-7.163 16-16 16s-16-7.163-16-16v0-672c0-8.837 7.163-16 16-16v0h864c8.837 0 16 7.163 16 16s-7.163 16-16 16v0zM96 736h768v-160h-768zM96 448h448v-160h-448z" />
<glyph unicode="&#xe906;" glyph-name="bubble-chart" d="M944 160h-848v656c0 8.837-7.163 16-16 16s-16-7.163-16-16v0-672c0-8.837 7.163-16 16-16v0h864c8.837 0 16 7.163 16 16s-7.163 16-16 16v0zM496 224c61.856 0 112 50.144 112 112s-50.144 112-112 112c-61.856 0-112-50.144-112-112v0c0-61.856 50.144-112 112-112v0zM496 416c44.183 0 80-35.817 80-80s-35.817-80-80-80c-44.183 0-80 35.817-80 80v0c0 44.183 35.817 80 80 80v0zM256 384c53.019 0 96 42.981 96 96s-42.981 96-96 96c-53.019 0-96-42.981-96-96v0c0-53.019 42.981-96 96-96v0zM256 544c35.346 0 64-28.654 64-64s-28.654-64-64-64c-35.346 0-64 28.654-64 64v0c0 35.346 28.654 64 64 64v0zM800 352c53.019 0 96 42.981 96 96s-42.981 96-96 96c-53.019 0-96-42.981-96-96v0c0-53.019 42.981-96 96-96v0zM800 512c35.346 0 64-28.654 64-64s-28.654-64-64-64c-35.346 0-64 28.654-64 64v0c0 35.346 28.654 64 64 64v0zM544 512c70.692 0 128 57.308 128 128s-57.308 128-128 128c-70.692 0-128-57.308-128-128v0c0-70.692 57.308-128 128-128v0zM544 736c53.019 0 96-42.981 96-96s-42.981-96-96-96c-53.019 0-96 42.981-96 96v0c0 53.019 42.981 96 96 96v0z" />
<glyph unicode="&#xe907;" glyph-name="combo-chart" d="M944 160h-48v464c0 8.837-7.163 16-16 16v0h-192c-8.837 0-16-7.163-16-16v0-464h-32v336c0 8.837-7.163 16-16 16v0h-192c-8.837 0-16-7.163-16-16v0-336h-32v208c0 8.837-7.163 16-16 16v0h-192c-8.837 0-16-7.163-16-16v0-208h-64v650.528c0 8.837-7.163 16-16 16s-16-7.163-16-16v0-666.528c0-8.837 7.163-16 16-16v0h864c8.837 0 16 7.163 16 16s-7.163 16-16 16v0zM352 160h-160v192h160zM608 160h-160v320h160zM864 160h-160v448h160zM176 512c0.002 0 0.005 0 0.008 0 2.178 0 4.254 0.435 6.146 1.223l-0.106-0.039 704 288c5.889 2.45 9.955 8.158 9.955 14.816 0 8.838-7.165 16.003-16.003 16.003-2.181 0-4.259-0.436-6.154-1.226l0.106 0.039-704-288c-5.892-2.448-9.96-8.157-9.96-14.816 0-8.837 7.163-16 16-16 0.003 0 0.005 0 0.008 0v0z" />
<glyph unicode="&#xe908;" glyph-name="dial-gauge-chart" d="M496 768h32c8.837 0 16 7.163 16 16s-7.163 16-16 16v0h-32c-8.837 0-16-7.163-16-16s7.163-16 16-16v0zM176 480c-8.837 0-16-7.163-16-16v0-32c0-8.837 7.163-16 16-16s16 7.163 16 16v0 32c0 8.837-7.163 16-16 16v0zM848 480c-8.837 0-16-7.163-16-16v0-32c0-8.837 7.163-16 16-16s16 7.163 16 16v0 32c0 8.837-7.163 16-16 16v0zM274.4 708.224l-22.624-22.624c-2.904-2.897-4.701-6.903-4.701-11.328 0-8.837 7.163-16 16-16 0.010 0 0.020 0 0.030 0h-0.002c4.414 0.010 8.407 1.806 11.296 4.704v0l22.624 22.624c3.014 2.914 4.885 6.993 4.885 11.509 0 8.837-7.163 16-16 16-4.516 0-8.595-1.871-11.504-4.88l-0.004-0.004zM749.6 233.024l-22.624-22.624c-2.779-2.874-4.491-6.795-4.491-11.115 0-8.837 7.163-16 16-16 4.321 0 8.241 1.712 11.12 4.496l22.62 22.62c2.779 2.874 4.491 6.795 4.491 11.115 0 8.837-7.163 16-16 16-4.321 0-8.241-1.712-11.12-4.496l0.004 0.004zM274.4 233.024c-2.914 3.014-6.993 4.885-11.509 4.885-8.837 0-16-7.163-16-16 0-4.516 1.871-8.595 4.88-11.504l22.628-22.628c2.874-2.779 6.795-4.491 11.115-4.491 8.837 0 16 7.163 16 16 0 4.321-1.712 8.241-4.496 11.12l0.004-0.004zM512 896c-247.515-0.417-448.003-201.163-448.003-448.735 0-159.9 83.634-300.267 209.545-379.742l1.85-1.090c2.407-1.526 5.338-2.432 8.48-2.432 0 0 0 0 0 0h456.256c0.010 0 0.021 0 0.032 0 3.142 0 6.073 0.906 8.546 2.471l-0.066-0.039c127.761 80.565 211.395 220.932 211.395 380.833 0 247.584-200.507 448.337-447.998 448.735h-0.038zM735.488 96h-446.976c-116.476 75.034-192.512 204.072-192.512 350.869 0 229.75 186.25 416 416 416s416-186.25 416-416c0-146.797-76.036-275.835-190.871-349.879l-1.641-0.991zM512 368c0.115-0.001 0.25-0.001 0.386-0.001 43.971 0 79.616 35.645 79.616 79.616 0 18.172-6.088 34.921-16.335 48.321l0.141-0.192c3.875 0.29 7.323 1.919 9.925 4.421l167.035 167.035c2.779 2.874 4.491 6.795 4.491 11.115 0 8.837-7.163 16-16 16-4.321 0-8.241-1.712-11.12-4.496l-167.036-167.036c-2.562-2.62-4.215-6.137-4.446-10.037l-0.002-0.043c-12.899 9.526-29.104 15.259-46.647 15.296h-0.009c-44.183 0-80-35.817-80-80s35.817-80 80-80v0zM512 496c26.51 0 48-21.49 48-48s-21.49-48-48-48c-26.51 0-48 21.49-48 48v0c0 26.51 21.49 48 48 48v0zM560 256h-96c-26.51 0-48-21.49-48-48s21.49-48 48-48v0h96c26.51 0 48 21.49 48 48s-21.49 48-48 48v0zM560 192h-96c-8.837 0-16 7.163-16 16s7.163 16 16 16v0h96c8.837 0 16-7.163 16-16s-7.163-16-16-16v0z" />
<glyph unicode="&#xe909;" glyph-name="donut-chart" d="M848 416h-192c-8.837 0-16-7.163-16-16v0c0-97.202-78.798-176-176-176s-176 78.798-176 176c0 97.202 78.798 176 176 176v0c8.837 0 16 7.163 16 16v0 192c0 8.837-7.163 16-16 16v0c-220.914 0-400-179.086-400-400s179.086-400 400-400c220.914 0 400 179.086 400 400v0c0 8.837-7.163 16-16 16v0zM96 400c0.239 197.519 155.864 358.612 351.189 367.618l0.811 0.030v-160.256c-107.752-8.441-191.991-97.956-191.991-207.146 0-51.86 19.002-99.281 50.424-135.681l-0.225 0.267-113.088-113.088c-60.166 65.026-97.083 152.326-97.12 248.248v0.008zM215.744 129.12l113.088 113.088c36.026-31.215 83.36-50.235 135.136-50.235s99.11 19.020 135.395 50.455l-0.259-0.22 113.216-113.216c-65.028-60.178-152.347-97.091-248.288-97.091s-183.259 36.913-248.529 97.311l0.241-0.22zM734.912 151.712l-113.12 113.12c27.795 32.091 45.945 73.217 49.553 118.442l0.047 0.726h160.256c-4.080-90.104-40.119-171.078-96.958-232.531l0.222 0.243zM560 896c-8.837 0-16-7.163-16-16v0-192c0-8.837 7.163-16 16-16v0c97.158-0.109 175.891-78.842 176-175.99v-0.010c0-8.837 7.163-16 16-16v0h192c8.837 0 16 7.163 16 16v0c-0.255 220.812-179.189 399.745-399.976 400h-0.024zM767.392 512c-8.258 102.21-89.183 183.135-190.653 191.344l-0.739 0.048v160.256c190.565-8.803 342.845-161.083 351.618-350.835l0.030-0.813z" />
<glyph unicode="&#xe90a;" glyph-name="funnel-chart" d="M944 160h-848v656c0 8.837-7.163 16-16 16s-16-7.163-16-16v0-672c0-8.837 7.163-16 16-16v0h864c8.837 0 16 7.163 16 16s-7.163 16-16 16v0zM357.12 523.84c45.237-60.095 76.762-132.993 88.549-212.331l0.315-2.581 9.888-71.136c1.122-7.833 7.785-13.788 15.84-13.792h112c0.045 0 0.099-0.001 0.153-0.001 8.058 0 14.725 5.957 15.837 13.707l0.010 0.086 9.92 71.136c12.099 81.915 43.612 154.812 89.705 216.125l-0.873-1.213 161.792 218.56c1.998 2.641 3.2 5.98 3.2 9.6 0 8.837-7.163 16-16 16v0h-639.456c-8.837 0-16-7.163-16-16 0-3.62 1.202-6.959 3.229-9.64l-0.029 0.040zM577.92 313.344l-8.16-57.344h-84.128l-7.968 57.344c-3.889 27.071-9.308 50.939-16.422 74.064l0.902-3.408h131.2c-6.23-19.713-11.67-43.578-15.268-68.042l-0.316-2.614zM603.968 416h-152.512c-18.216 48.449-41.366 90.356-69.61 128.241l0.97-1.361-0.8 1.12h291.392l-0.8-1.12c-27.319-36.517-50.472-78.429-67.473-123.365l-1.167-3.515zM815.648 736l-118.4-160h-338.848l-118.4 160z" />
<glyph unicode="&#xe90b;" glyph-name="gantt-chart" d="M176 672h352c8.837 0 16 7.163 16 16v0 128c0 8.837-7.163 16-16 16v0h-352c-8.837 0-16-7.163-16-16v0-128c0-8.837 7.163-16 16-16v0zM192 800h320v-96h-320zM384 592v-128c0-8.837 7.163-16 16-16v0h288c8.837 0 16 7.163 16 16v0 128c0 8.837-7.163 16-16 16v0h-288c-8.837 0-16-7.163-16-16v0zM416 576h256v-96h-256zM512 368v-128c0-8.837 7.163-16 16-16v0h352c8.837 0 16 7.163 16 16v0 128c0 8.837-7.163 16-16 16v0h-352c-8.837 0-16-7.163-16-16v0zM544 352h320v-96h-320zM944 160h-848v656c0 8.837-7.163 16-16 16s-16-7.163-16-16v0-672c0-8.837 7.163-16 16-16v0h864c8.837 0 16 7.163 16 16s-7.163 16-16 16v0z" />
<glyph unicode="&#xe90c;" glyph-name="line-area-chart" d="M950.208 774.72c-1.85 0.809-4.006 1.281-6.272 1.281-4.315 0-8.231-1.708-11.109-4.485l0.005 0.005-163.648-159.104-162.080 104.992c-2.455 1.61-5.463 2.569-8.695 2.569-4.335 0-8.268-1.724-11.149-4.524l0.004 0.004-163.68-159.104-162.080 105.056c-2.46 1.62-5.477 2.584-8.719 2.584-4.763 0-9.040-2.081-11.971-5.384l-0.014-0.017-144.8-164.256v321.664c0 8.837-7.163 16-16 16s-16-7.163-16-16v0-672c0-8.837 7.163-16 16-16v0h864c8.837 0 16 7.163 16 16v0 616c-0.011 6.584-3.998 12.235-9.688 14.68l-0.104 0.040zM928 160h-832v61.952l159.68 181.248 161.216-104.48c2.455-1.61 5.463-2.569 8.695-2.569 4.335 0 8.268 1.724 11.149 4.524l-0.004-0.004 163.68 159.104 162.080-105.056c2.455-1.61 5.463-2.569 8.695-2.569 4.335 0 8.268 1.724 11.149 4.524l-0.004-0.004 145.664 141.472zM928 542.752l-158.816-154.4-162.080 105.056c-2.455 1.61-5.463 2.569-8.695 2.569-4.335 0-8.268-1.724-11.149-4.524l0.004 0.004-163.68-159.104-162.080 105.056c-2.46 1.62-5.477 2.584-8.719 2.584-4.763 0-9.040-2.081-11.971-5.384l-0.014-0.017-144.8-164.256v175.616l159.68 181.248 161.216-104.48c2.455-1.61 5.463-2.569 8.695-2.569 4.335 0 8.268 1.724 11.149 4.524l-0.004-0.004 163.68 159.104 162.080-105.056c2.455-1.61 5.463-2.569 8.695-2.569 4.335 0 8.268 1.724 11.149 4.524l-0.004-0.004 145.664 141.44z" />
<glyph unicode="&#xe90d;" glyph-name="page-bottom" d="M489.376 425.376c5.791-5.789 13.789-9.369 22.624-9.369s16.833 3.58 22.624 9.369l320 320c6.027 5.827 9.769 13.985 9.769 23.017 0 17.673-14.327 32-32 32-9.032 0-17.19-3.742-23.009-9.76l-297.385-297.385-297.376 297.376c-5.749 5.558-13.59 8.983-22.231 8.983-17.673 0-32-14.327-32-32 0-8.641 3.425-16.482 8.991-22.24l-0.009 0.009zM832 160h-640c-17.673 0-32-14.327-32-32s14.327-32 32-32v0h640c17.673 0 32 14.327 32 32s-14.327 32-32 32v0z" />
<glyph unicode="&#xe90e;" glyph-name="page-first" d="M557.248 448l297.376 297.376c6.027 5.827 9.769 13.985 9.769 23.017 0 17.673-14.327 32-32 32-9.032 0-17.19-3.742-23.009-9.76l-320.009-320.009c-5.789-5.791-9.369-13.789-9.369-22.624s3.58-16.833 9.369-22.624l320-320c5.749-5.558 13.59-8.983 22.231-8.983 17.673 0 32 14.327 32 32 0 8.641-3.425 16.482-8.991 22.24l0.009-0.009zM192 800c-17.673 0-32-14.327-32-32v0-640c0-17.673 14.327-32 32-32s32 14.327 32 32v0 640c0 17.673-14.327 32-32 32v0z" />
<glyph unicode="&#xe90f;" glyph-name="page-last" d="M214.624 790.624c-5.749 5.558-13.59 8.983-22.231 8.983-17.673 0-32-14.327-32-32 0-8.641 3.425-16.482 8.991-22.24l297.367-297.367-297.376-297.376c-6.027-5.827-9.769-13.985-9.769-23.017 0-17.673 14.327-32 32-32 9.032 0 17.19 3.742 23.009 9.76l320.009 320.009c5.789 5.791 9.369 13.789 9.369 22.624s-3.58 16.833-9.369 22.624v0zM832 800c-17.673 0-32-14.327-32-32v0-640c0-17.673 14.327-32 32-32s32 14.327 32 32v0 640c0 17.673-14.327 32-32 32v0z" />
<glyph unicode="&#xe910;" glyph-name="page-top" d="M534.624 470.624c-5.791 5.789-13.789 9.369-22.624 9.369s-16.833-3.58-22.624-9.369l-320-320c-5.558-5.749-8.983-13.59-8.983-22.231 0-17.673 14.327-32 32-32 8.641 0 16.482 3.425 22.24 8.991l297.367 297.367 297.376-297.376c5.749-5.558 13.59-8.983 22.231-8.983 17.673 0 32 14.327 32 32 0 8.641-3.425 16.482-8.991 22.24l0.009-0.009zM192 736h640c17.673 0 32 14.327 32 32s-14.327 32-32 32v0h-640c-17.673 0-32-14.327-32-32s14.327-32 32-32v0z" />
<glyph unicode="&#xe911;" glyph-name="polar-chart" d="M944 448h-144.8c-9.228 231.261-198.61 415.328-431.134 416h-0.066c-8.837 0-16-7.163-16-16v0-112.8c-160.954-8.513-288.241-141.096-288.241-303.409 0-167.789 136.019-303.808 303.808-303.808 78.921 0 150.813 30.092 204.828 79.429l-0.236-0.212 191.648-189.824c2.884-2.828 6.838-4.574 11.2-4.574s8.316 1.746 11.203 4.576l-0.003-0.003c107.289 105.208 173.793 251.669 173.793 413.664 0 0.338 0 0.675-0.001 1.013v-0.052c0 8.837-7.163 16-16 16v0zM767.68 448h-383.68v372.736c0 0.992 0.672 1.792 0.608 2.816-0.18 0.898-0.39 1.66-0.647 2.4l0.039-0.128v5.824c208.123-9.111 374.551-175.528 383.651-382.804l0.029-0.844zM368 160c-150.070 0.084-271.693 121.758-271.693 271.84 0 144.453 112.671 262.59 254.926 271.322l0.767 0.038v-271.2c0-0.576 0.352-0.672 0.512-0.96 0.072-4.034 1.667-7.683 4.231-10.408l-0.007 0.008 192.672-190.88c-47.658-43.27-111.237-69.76-181.002-69.76-0.143 0-0.286 0-0.428 0h0.022zM774.912 51.456l-368.032 364.544h520.896c-3.994-142.009-61.524-269.851-153.022-364.709l0.158 0.165z" />
<glyph unicode="&#xe912;" glyph-name="radar-chart" d="M864 318.368v259.2c37.058 7.476 64.572 39.774 64.572 78.498 0 44.183-35.817 80-80 80-25.617 0-48.421-12.040-63.063-30.77l-0.133-0.176-180.416 90.272c1.836 6.151 2.939 13.231 3.039 20.553l0.001 0.055c0 44.183-35.817 80-80 80s-80-35.817-80-80v0c0.041-6.344 0.832-12.484 2.289-18.361l-0.113 0.537-186.624-84.8c-14.467 14.254-34.34 23.056-56.269 23.056-44.289 0-80.192-35.903-80.192-80.192s35.903-80.192 80.192-80.192c18.923 0 36.315 6.554 50.029 17.516l-0.16-0.124 194.592-106.144c-2.297-6.947-3.66-14.948-3.744-23.255v-0.041c0.008-38.513 27.228-70.665 63.479-78.276l0.521-0.092v-227.2c-36.777-7.704-64-39.865-64-78.384 0-44.183 35.817-80 80-80 44.166 0 79.972 35.79 80 79.949v0.003c-0.101 7.377-1.204 14.457-3.18 21.163l0.14-0.555 180.416 90.208c14.75-18.671 37.391-30.545 62.805-30.545 44.094 0 79.84 35.746 79.84 79.84 0 38.495-27.244 70.628-63.503 78.167l-0.518 0.090zM848 704c26.51 0 48-21.49 48-48s-21.49-48-48-48c-26.51 0-48 21.49-48 48v0c0 26.51 21.49 48 48 48v0zM528 864c26.51 0 48-21.49 48-48s-21.49-48-48-48c-26.51 0-48 21.49-48 48v0c0 26.51 21.49 48 48 48v0zM160 656c0 26.51 21.49 48 48 48s48-21.49 48-48c0-26.51-21.49-48-48-48v0c-26.51 0-48 21.49-48 48v0zM480 464c0 26.51 21.49 48 48 48s48-21.49 48-48c0-26.51-21.49-48-48-48v0c-26.51 0-48 21.49-48 48v0zM528 32c-26.51 0-48 21.49-48 48s21.49 48 48 48c26.51 0 48-21.49 48-48v0c0-26.51-21.49-48-48-48v0zM590.624 129.184c-11.41 14.621-27.553 25.080-46.099 29.089l-0.525 0.095v227.2c37.086 7.454 64.628 39.765 64.628 78.509 0 44.183-35.817 80-80 80-24.625 0-46.651-11.126-61.326-28.625l-0.101-0.124-188.992 103.136c6.161 10.904 9.792 23.945 9.792 37.833 0 10.927-2.248 21.33-6.306 30.771l0.194-0.507 181.6 82.56c14.551-20.15 37.974-33.111 64.425-33.111 25.441 0 48.081 11.99 62.578 30.628l0.134 0.178 180.576-90.208c-1.884-6.136-3.042-13.206-3.199-20.523l-0.001-0.085c0.008-38.513 27.228-70.665 63.479-78.276l0.521-0.092v-259.2c-36.777-7.704-64-39.865-64-78.384 0-0.017 0-0.034 0-0.051v0.003c0.101-7.377 1.204-14.457 3.18-21.163l-0.14 0.555zM848 192c-26.51 0-48 21.49-48 48s21.49 48 48 48c26.51 0 48-21.49 48-48v0c0-26.51-21.49-48-48-48v0z" />
<glyph unicode="&#xe913;" glyph-name="range-chart-area" d="M305.088 413.12l279.136-155.104c2.24-1.269 4.92-2.016 7.775-2.016 2.614 0 5.081 0.627 7.26 1.738l-0.091-0.042 184.16 92.064 152.448-91.488c2.348-1.429 5.187-2.275 8.224-2.275 8.837 0 16 7.163 16 16 0 0.001 0 0.002 0 0.004v0 224c0 0.001 0 0.002 0 0.003 0 5.8-3.086 10.879-7.705 13.685l-0.071 0.040-160 96c-2.347 1.428-5.186 2.274-8.222 2.274-3.621 0-6.961-1.203-9.643-3.231l0.040 0.029-115.584-86.688-118.4 147.872c-2.751 3.442-6.843 5.712-11.473 6.014l-0.047 0.002c-0.189 0.008-0.41 0.012-0.632 0.012-4.5 0-8.586-1.773-11.598-4.658l-83.194-83.194-116.96 145.824c-2.886 3.595-7.242 5.906-12.142 6.016h-0.018c-4.886-0.076-9.271-2.161-12.376-5.463l-0.008-0.009-195.968-223.936v309.408c0 8.837-7.163 16-16 16s-16-7.163-16-16v0-672c0-8.837 7.163-16 16-16v0h864c8.837 0 16 7.163 16 16s-7.163 16-16 16v0h-848v103.776zM303.456 695.072l116.032-145.056c2.957-3.693 7.464-6.037 12.52-6.037 4.422 0 8.424 1.794 11.32 4.693v0l83.2 83.2 116.832-146.016c2.957-3.683 7.459-6.020 12.506-6.020 3.623 0 6.964 1.204 9.646 3.233l-0.040-0.029 119.392 89.6 143.136-85.696v-186.688l-135.776 81.472c-2.347 1.428-5.185 2.273-8.22 2.273-2.615 0-5.083-0.627-7.262-1.739l0.091 0.042-184.416-92.224-280.64 155.904c-2.243 1.272-4.927 2.022-7.786 2.022-3.49 0-6.72-1.118-9.35-3.014l0.047 0.032-198.688-141.92v154.88z" />
<glyph unicode="&#xe914;" glyph-name="range-chart-bar" d="M944 128h-864c-8.837 0-16 7.163-16 16v0 704c0 8.837 7.163 16 16 16s16-7.163 16-16v0-688h848c8.837 0 16-7.163 16-16s-7.163-16-16-16v0zM944 416h-192c-8.837 0-16 7.163-16 16v0 352c0 8.837 7.163 16 16 16v0h192c8.837 0 16-7.163 16-16v0-352c0-8.837-7.163-16-16-16v0zM768 448h160v320h-160zM368 320h-192c-8.837 0-16 7.163-16 16v0 352c0 8.837 7.163 16 16 16v0h192c8.837 0 16-7.163 16-16v0-352c0-8.837-7.163-16-16-16v0zM192 352h160v320h-160zM656 224h-192c-8.837 0-16 7.163-16 16v0 352c0 8.837 7.163 16 16 16v0h192c8.837 0 16-7.163 16-16v0-352c0-8.837-7.163-16-16-16v0zM480 256h160v320h-160z" />
<glyph unicode="&#xe915;" glyph-name="scatter-chart" d="M944 160h-848v656c0 8.837-7.163 16-16 16s-16-7.163-16-16v0-672c0-8.837 7.163-16 16-16v0h864c8.837 0 16 7.163 16 16s-7.163 16-16 16v0zM864 384c53.019 0 96 42.981 96 96s-42.981 96-96 96c-53.019 0-96-42.981-96-96v0c0-53.019 42.981-96 96-96v0zM864 544c35.346 0 64-28.654 64-64s-28.654-64-64-64c-35.346 0-64 28.654-64 64v0c0 35.346 28.654 64 64 64v0zM672 640c53.019 0 96 42.981 96 96s-42.981 96-96 96c-53.019 0-96-42.981-96-96v0c0-53.019 42.981-96 96-96v0zM672 800c35.346 0 64-28.654 64-64s-28.654-64-64-64c-35.346 0-64 28.654-64 64v0c0 35.346 28.654 64 64 64v0zM416 480c53.019 0 96 42.981 96 96s-42.981 96-96 96c-53.019 0-96-42.981-96-96v0c0-53.019 42.981-96 96-96v0zM416 640c35.346 0 64-28.654 64-64s-28.654-64-64-64c-35.346 0-64 28.654-64 64v0c0 35.346 28.654 64 64 64v0zM256 224c53.019 0 96 42.981 96 96s-42.981 96-96 96c-53.019 0-96-42.981-96-96v0c0-53.019 42.981-96 96-96v0zM256 384c35.346 0 64-28.654 64-64s-28.654-64-64-64c-35.346 0-64 28.654-64 64v0c0 35.346 28.654 64 64 64v0z" />
<glyph unicode="&#xe916;" glyph-name="stock-chart" d="M944 160h-848v656c0 8.837-7.163 16-16 16s-16-7.163-16-16v0-672c0-8.837 7.163-16 16-16v0h864c8.837 0 16 7.163 16 16s-7.163 16-16 16v0zM224 320h32v-80c0-8.837 7.163-16 16-16s16 7.163 16 16v0 80h32c17.673 0 32 14.327 32 32v0 224c0 17.673-14.327 32-32 32v0h-32v80c0 8.837-7.163 16-16 16s-16-7.163-16-16v0-80h-32c-17.673 0-32-14.327-32-32v0-224c0-17.673 14.327-32 32-32v0zM224 576h96v-224h-96zM736 320h32v-80c0-8.837 7.163-16 16-16s16 7.163 16 16v0 80h32c17.673 0 32 14.327 32 32v0 224c0 17.673-14.327 32-32 32v0h-32v80c0 8.837-7.163 16-16 16s-16-7.163-16-16v0-80h-32c-17.673 0-32-14.327-32-32v0-224c0-17.673 14.327-32 32-32v0zM736 576h96v-224h-96zM480 448h32v-80c0-8.837 7.163-16 16-16s16 7.163 16 16v0 80h32c17.673 0 32 14.327 32 32v0 224c0 17.673-14.327 32-32 32v0h-32v80c0 8.837-7.163 16-16 16s-16-7.163-16-16v0-80h-32c-17.673 0-32-14.327-32-32v0-224c0-17.673 14.327-32 32-32v0zM480 704h96v-224h-96z" />
<glyph unicode="&#xe917;" glyph-name="x-axis" d="M374.016 291.488c2.7-2.151 6.162-3.451 9.926-3.451 5.029 0 9.517 2.32 12.45 5.949l115.608 144.414 115.488-144.352c2.958-3.685 7.462-6.023 12.512-6.023 8.841 0 16.007 7.167 16.007 16.007 0 3.79-1.317 7.273-3.519 10.015l0.024-0.031-120 149.984 120 150.016c2.178 2.711 3.495 6.194 3.495 9.984 0 8.841-7.167 16.007-16.007 16.007-5.050 0-9.554-2.339-12.488-5.992l-0.024-0.031-115.488-144.384-115.488 144.352c-2.958 3.685-7.462 6.023-12.512 6.023-8.841 0-16.007-7.167-16.007-16.007 0-3.79 1.317-7.273 3.519-10.015l-0.024 0.031 120-150.016-120-150.016c-2.17-2.707-3.483-6.183-3.483-9.966 0-5.043 2.333-9.542 5.98-12.474l0.031-0.024zM880 224c-8.837 0-16-7.163-16-16v0-48h-704v48c0 8.837-7.163 16-16 16s-16-7.163-16-16v0-64c0-8.837 7.163-16 16-16v0h736c8.837 0 16 7.163 16 16v0 64c0 8.837-7.163 16-16 16v0z" />
<glyph unicode="&#xe918;" glyph-name="y-axis" d="M208 800c8.837 0 16 7.163 16 16s-7.163 16-16 16v0h-64c-8.837 0-16-7.163-16-16v0-736c0-8.837 7.163-16 16-16v0h64c8.837 0 16 7.163 16 16s-7.163 16-16 16v0h-48v704zM664.864 637.312c-2.491 1.678-5.56 2.678-8.862 2.678-5.529 0-10.404-2.805-13.278-7.069l-0.036-0.057-114.688-172.064-114.688 172.032c-2.874 4.549-7.875 7.527-13.572 7.527-8.837 0-16-7.163-16-16 0-3.47 1.104-6.681 2.981-9.303l-0.033 0.048 125.312-187.936v-123.168c0-8.837 7.163-16 16-16s16 7.163 16 16v0 123.168l125.312 187.968c1.678 2.491 2.678 5.56 2.678 8.862 0 5.529-2.805 10.404-7.069 13.278l-0.057 0.036z" />
<glyph unicode="&#xe919;" glyph-name="y1-axis" d="M208 800c8.837 0 16 7.163 16 16s-7.163 16-16 16v0h-64c-8.837 0-16-7.163-16-16v0-736c0-8.837 7.163-16 16-16v0h64c8.837 0 16 7.163 16 16s-7.163 16-16 16v0h-48v704zM642.688 632.864l-114.688-172.064-114.688 172.032c-2.874 4.549-7.875 7.527-13.572 7.527-8.837 0-16-7.163-16-16 0-3.47 1.104-6.681 2.981-9.303l-0.033 0.048 125.312-187.936v-123.168c0-8.837 7.163-16 16-16s16 7.163 16 16v0 123.168l125.312 187.968c1.844 2.573 2.948 5.785 2.948 9.255 0 8.837-7.163 16-16 16-5.697 0-10.698-2.977-13.533-7.461l-0.039-0.066zM792.416 285.632c-2.387 1.493-5.287 2.379-8.394 2.379-2.622 0-5.097-0.631-7.28-1.749l0.090 0.042-64-32c-5.218-2.707-8.721-8.069-8.721-14.248 0-8.837 7.163-16 16-16 2.57 0 4.998 0.606 7.15 1.682l-0.092-0.042 40.832 20.416v-166.112c0-8.837 7.163-16 16-16s16 7.163 16 16v0 192c0 0.007 0 0.016 0 0.024 0 5.721-3.002 10.74-7.517 13.569l-0.067 0.039z" />
<glyph unicode="&#xe91a;" glyph-name="y2-axis" d="M208 800c8.837 0 16 7.163 16 16s-7.163 16-16 16v0h-64c-8.837 0-16-7.163-16-16v0-736c0-8.837 7.163-16 16-16v0h64c8.837 0 16 7.163 16 16s-7.163 16-16 16v0h-48v704zM816 96h-77.728c8.463 18.373 22.026 33.182 38.873 42.956l0.455 0.244c30.928 16.767 52.104 48.074 54.385 84.504l0.015 0.296c0 35.346-28.654 64-64 64s-64-28.654-64-64v0c0-8.837 7.163-16 16-16s16 7.163 16 16v0c0 17.673 14.327 32 32 32s32-14.327 32-32v0c0-26.656-15.808-39.84-41.6-59.2-30.928-16.767-52.104-48.074-54.385-84.504l-0.015-0.296c0-8.837 7.163-16 16-16v0h96c8.837 0 16 7.163 16 16s-7.163 16-16 16v0zM642.688 632.864l-114.688-172.064-114.688 172.032c-2.874 4.549-7.875 7.527-13.572 7.527-8.837 0-16-7.163-16-16 0-3.47 1.104-6.681 2.981-9.303l-0.033 0.048 125.312-187.936v-123.168c0-8.837 7.163-16 16-16s16 7.163 16 16v0 123.168l125.312 187.968c1.844 2.573 2.948 5.785 2.948 9.255 0 8.837-7.163 16-16 16-5.697 0-10.698-2.977-13.533-7.461l-0.039-0.066z" />
<glyph unicode="&#xe91b;" glyph-name="user-arrow-down" d="M891.328 187.328c-6.24 6.24-16.384 6.24-22.624 0l-100.704-100.704v281.376c0 8.832-7.168 16-16 16s-16-7.168-16-16v-281.376l-100.672 100.672c-3.136 3.136-7.232 4.704-11.328 4.704s-8.192-1.568-11.328-4.672c-6.24-6.24-6.24-16.384 0-22.624l128-128c6.24-6.24 16.384-6.24 22.624 0l128 128c6.272 6.24 6.272 16.352 0.032 22.624zM598.528 384.96l-75.264 33.696c-23.904 10.688-39.904 36.48-42.304 65.312 56.768 38.496 95.040 109.472 95.040 190.72 0 122.016-86.112 221.312-192 221.312s-192-99.296-192-221.344c0-81.248 38.272-152.192 95.040-190.688-2.432-28.832-18.432-54.624-42.304-65.312l-118.496-53.024c-37.824-16.96-62.24-56.864-62.24-101.696v-55.936c0-8.832 7.168-16 16-16s16 7.168 16 16v55.936c0 31.744 17.376 60.864 43.296 72.448l118.496 53.024c30.944 13.856 52.64 43.2 59.616 77.92 20.8-8.896 43.168-14.016 66.624-14.016s45.824 5.12 66.624 14.016c6.944-34.752 28.672-64.096 59.616-77.92l75.264-33.696c2.112-0.928 4.352-1.376 6.528-1.376 6.080 0 11.936 3.52 14.592 9.472 3.552 8.064-0.064 17.536-8.128 21.152zM224 674.688c0 104.384 71.776 189.312 160 189.312s160-84.928 160-189.312v-0.032c0-104.384-71.776-189.312-160-189.312s-160 84.928-160 189.344z" />
<glyph unicode="&#xe91c;" glyph-name="user-arrow-up" d="M576 674.688c0 122.016-86.112 221.312-192 221.312s-192-99.296-192-221.344c0-81.248 38.272-152.192 95.040-190.688-2.432-28.832-18.432-54.624-42.304-65.312l-118.496-53.024c-37.824-16.96-62.24-56.864-62.24-101.696v-55.936c0-8.832 7.168-16 16-16s16 7.168 16 16v55.936c0 31.744 17.376 60.864 43.296 72.448l118.496 53.024c30.944 13.856 52.64 43.2 59.616 77.92 20.8-8.896 43.168-14.016 66.624-14.016s45.824 5.12 66.624 14.016c6.944-34.752 28.672-64.096 59.584-77.92l11.264-5.056c2.112-0.96 4.352-1.408 6.528-1.408 6.112 0 11.968 3.52 14.624 9.44 3.616 8.064 0 17.536-8.032 21.152l-11.264 5.056c-23.904 10.688-39.904 36.48-42.304 65.312 56.672 38.56 94.944 109.536 94.944 190.784zM384 485.344c-88.224 0-160 84.96-160 189.344s71.776 189.312 160 189.312 160-84.928 160-189.312v-0.032c0-104.416-71.776-189.312-160-189.312zM891.328 251.328l-128 128c-6.24 6.24-16.384 6.24-22.624 0l-128-128c-6.24-6.24-6.24-16.384 0-22.624s16.384-6.24 22.624 0l100.672 100.672v-281.376c0-8.832 7.168-16 16-16s16 7.168 16 16v281.376l100.672-100.672c3.136-3.136 7.232-4.704 11.328-4.704s8.192 1.568 11.328 4.672c6.24 6.272 6.24 16.384 0 22.656z" />
<glyph unicode="&#xe91d;" glyph-name="user-chart" d="M880 256h-80v80c0 8.832-7.168 16-16 16h-96c-8.832 0-16-7.168-16-16v-144h-80c-8.832 0-16-7.168-16-16v-160c0-8.832 7.168-16 16-16h288c8.832 0 16 7.168 16 16v224c0 8.832-7.168 16-16 16zM672 32h-64v128h64v-128zM768 32h-64v288h64v-288zM864 32h-64v192h64v-192zM534.56 413.568l-11.264 5.056c-23.904 10.688-39.904 36.48-42.304 65.312 56.768 38.496 95.040 109.472 95.040 190.72-0.032 122.048-86.144 221.344-192.032 221.344s-192-99.296-192-221.344c0-81.248 38.272-152.192 95.040-190.688-2.432-28.832-18.432-54.624-42.304-65.312l-118.496-53.024c-37.824-16.96-62.24-56.864-62.24-101.696v-55.936c0-8.832 7.168-16 16-16s16 7.168 16 16v55.936c0 31.744 17.376 60.864 43.296 72.448l118.496 53.024c30.944 13.856 52.64 43.2 59.616 77.92 20.8-8.896 43.168-14.016 66.624-14.016s45.824 5.12 66.624 14.016c6.944-34.752 28.672-64.096 59.584-77.92l11.264-5.056c2.112-0.96 4.352-1.408 6.528-1.408 6.112 0 11.968 3.52 14.624 9.44 3.552 8.128-0.032 17.6-8.096 21.184zM224 674.688c0 104.384 71.776 189.312 160 189.312s160-84.928 160-189.312v-0.032c0-104.384-71.776-189.312-160-189.312s-160 84.928-160 189.344z" />
<glyph unicode="&#xe91e;" glyph-name="user-circle-o" d="M512 896c-247.040 0-448-200.96-448-448s200.96-448 448-448 448 200.96 448 448-200.96 448-448 448zM250.144 125.152l115.808 51.008c37.44 16.512 62.24 54.112 65.44 97.248 25.024-11.072 52.16-17.408 80.608-17.408s55.584 6.336 80.64 17.44c3.168-43.168 27.968-80.768 65.472-97.28l115.744-51.008c-71.584-58.144-162.656-93.152-261.856-93.152s-190.304 35.008-261.856 93.152zM512 288c-105.888 0-192 100.512-192 224.032 0 123.488 86.112 223.968 192 223.968s192-100.512 192-224.032c0-123.488-86.112-223.968-192-223.968zM799.904 148.448c-0.704 0.32-1.312 0.768-2.016 1.088l-126.944 55.936c-28.544 12.576-46.976 42.88-46.976 77.216v7.968c66.848 44.352 112 126.88 112 221.376 0.032 141.152-100.48 255.968-223.968 255.968-123.52 0-224-114.816-224-255.968v-0.064c0-94.496 45.152-176.992 112-221.344v-7.968c0-34.336-18.432-64.64-46.976-77.216l-127.008-55.968c-0.672-0.288-1.28-0.736-1.952-1.056-78.752 75.776-128.064 181.92-128.064 299.584 0 229.376 186.624 416 416 416s416-186.624 416-416c0-117.664-49.312-223.84-128.096-299.552z" />
<glyph unicode="&#xe91f;" glyph-name="cloud-wrench" d="M796.544 448c2.181 9.611 3.439 20.654 3.456 31.988v0.012c-0.109 88.321-71.678 159.891-159.989 160h-0.011c-0.060 0-0.132 0-0.204 0-25.47 0-49.536-6.015-70.853-16.703l0.913 0.415c-21.592 84.161-96.774 145.368-186.251 145.368-106.039 0-192-85.961-192-192 0-25.934 5.142-50.667 14.462-73.235l-0.466 1.275c-82.238-22.843-141.593-97.049-141.593-185.118 0-87.357 58.399-161.074 138.286-184.241l1.355-0.337c1.196-0.32 2.568-0.504 3.984-0.504 8.837 0 16 7.163 16 16 0 7.152-4.692 13.208-11.166 15.257l-0.113 0.031c-67.707 19.557-116.385 80.979-116.385 153.771 0 79.499 58.061 145.436 134.092 157.723l0.917 0.122c7.715 1.234 13.539 7.842 13.539 15.81 0 2.739-0.688 5.317-1.901 7.572l0.042-0.085c-11.748 21.56-18.656 47.22-18.656 74.493 0 0.136 0 0.272 0.001 0.408v-0.021c0.648 87.872 72.032 158.856 159.996 158.856 80.74 0 147.511-59.804 158.435-137.531l0.097-0.845c1.043-7.919 7.75-13.969 15.871-13.969 3.399 0 6.55 1.060 9.142 2.867l-0.052-0.034c20.417 14.537 45.865 23.24 73.346 23.24 70.339 0 127.36-57.021 127.36-127.36 0-16.653-3.196-32.56-9.009-47.14l0.302 0.86c-0.658-1.684-1.039-3.634-1.039-5.672 0-8.837 7.163-16 16-16 1.024 0 2.025 0.096 2.995 0.28l-0.1-0.016c6.749 1.437 14.557 2.327 22.549 2.463l0.107 0.001c70.692 0 128-57.308 128-128s-57.308-128-128-128v0h-16c-8.837 0-16-7.163-16-16s7.163-16 16-16v0h16c87.624 0.977 158.281 72.237 158.281 160 0 88.371-71.639 160.009-160.009 160.009-0.608 0-1.214-0.003-1.82-0.010l0.092 0.001zM686.752 333.12c-3.17 1.356-6.859 2.144-10.733 2.144-7.719 0-14.707-3.131-19.763-8.192v0l-51.2-51.2-41.216 41.408 50.88 50.72c5.188 5.086 8.404 12.168 8.404 20 0 15.464-12.536 28-28 28-0.041 0-0.082 0-0.123 0h-35.002c-61.856 0-112-50.144-112-112v0-37.344c0-0.040 0-0.088 0-0.136 0-13.204-5.37-25.153-14.046-33.782l-0.002-0.002-128-128.16c-9.827-10.836-15.842-25.287-15.842-41.142 0-33.879 27.465-61.344 61.344-61.344 15.983 0 30.538 6.112 41.455 16.127l-0.045-0.041 128 128c8.699 8.52 20.611 13.788 33.753 13.824h37.543c61.787 0.091 111.84 50.2 111.84 112 0 0 0 0 0 0v0 35.2c0 0.020 0 0.043 0 0.067 0 11.584-7.034 21.525-17.065 25.784l-0.183 0.069zM672 272c0-44.183-35.817-80-80-80v0h-37.376c-22.106-0.073-42.109-9.019-56.644-23.46l0.004 0.004-127.84-128c-5.266-5.067-12.435-8.187-20.334-8.187-16.206 0-29.344 13.138-29.344 29.344 0 7.843 3.077 14.967 8.089 20.231l-0.011-0.012 128 128c14.489 14.411 23.456 34.362 23.456 56.408 0 0.093 0 0.186 0 0.279v-0.014 37.408c0 44.183 35.817 80 80 80v0h25.6l-44.096-44.032c-5.789-5.791-9.369-13.789-9.369-22.624s3.58-16.833 9.369-22.624v0l41.248-41.6c5.765-5.811 13.754-9.408 22.583-9.408 0.014 0 0.029 0 0.043 0h-0.002c0.032 0 0.070 0 0.107 0 8.792 0 16.747 3.585 22.482 9.374l44.034 44.514z" />
<glyph unicode="&#xe920;" glyph-name="cloud-x" d="M796.544 448c2.181 9.611 3.439 20.654 3.456 31.988v0.012c-0.109 88.321-71.678 159.891-159.989 160h-0.011c-0.060 0-0.132 0-0.204 0-25.47 0-49.536-6.015-70.853-16.703l0.913 0.415c-21.592 84.161-96.774 145.368-186.251 145.368-106.039 0-192-85.961-192-192 0-25.934 5.142-50.667 14.462-73.235l-0.466 1.275c-82.238-22.843-141.593-97.049-141.593-185.118 0-87.357 58.399-161.074 138.286-184.241l1.355-0.337c1.196-0.32 2.568-0.504 3.984-0.504 8.837 0 16 7.163 16 16 0 7.152-4.692 13.208-11.166 15.257l-0.113 0.031c-67.707 19.557-116.385 80.979-116.385 153.771 0 79.499 58.061 145.436 134.092 157.723l0.917 0.122c7.715 1.234 13.539 7.842 13.539 15.81 0 2.739-0.688 5.317-1.901 7.572l0.042-0.085c-11.748 21.56-18.656 47.22-18.656 74.493 0 0.136 0 0.272 0.001 0.408v-0.021c0.648 87.872 72.032 158.856 159.996 158.856 80.74 0 147.511-59.804 158.435-137.531l0.097-0.845c1.043-7.919 7.75-13.969 15.871-13.969 3.399 0 6.55 1.060 9.142 2.867l-0.052-0.034c20.417 14.537 45.865 23.24 73.346 23.24 70.339 0 127.36-57.021 127.36-127.36 0-16.653-3.196-32.56-9.009-47.14l0.302 0.86c-0.658-1.684-1.039-3.634-1.039-5.672 0-8.837 7.163-16 16-16 1.024 0 2.025 0.096 2.995 0.28l-0.1-0.016c6.749 1.437 14.557 2.327 22.549 2.463l0.107 0.001c70.692 0 128-57.308 128-128s-57.308-128-128-128v0h-16c-8.837 0-16-7.163-16-16s7.163-16 16-16v0h16c87.624 0.977 158.281 72.237 158.281 160 0 88.371-71.639 160.009-160.009 160.009-0.608 0-1.214-0.003-1.82-0.010l0.092 0.001zM619.328 267.328c-2.897 2.904-6.903 4.701-11.328 4.701s-8.431-1.797-11.328-4.7v0l-100.672-100.672-100.672 100.672c-2.898 2.902-6.903 4.697-11.328 4.697-8.841 0-16.009-7.167-16.009-16.009 0-4.417 1.789-8.416 4.681-11.312v0l100.704-100.704-100.704-100.704c-2.892-2.896-4.681-6.895-4.681-11.312 0-8.841 7.167-16.009 16.009-16.009 4.425 0 8.43 1.795 11.328 4.697l100.672 100.736 100.672-100.704c2.898-2.902 6.903-4.697 11.328-4.697 8.841 0 16.009 7.167 16.009 16.009 0 4.417-1.789 8.416-4.681 11.312v0l-100.704 100.672 100.704 100.672c2.904 2.897 4.701 6.903 4.701 11.328s-1.797 8.431-4.7 11.328v0z" />
<glyph unicode="&#xe921;" glyph-name="user-check" d="M907.328 315.328c-6.24 6.24-16.384 6.24-22.624 0l-180.704-180.704-84.672 84.672c-6.24 6.24-16.384 6.24-22.624 0s-6.24-16.384 0-22.624l96-96c3.104-3.104 7.2-4.672 11.296-4.672s8.192 1.568 11.328 4.672l192 192c6.24 6.272 6.24 16.384 0 22.656zM606.592 363.808c3.616 8.064 0 17.536-8.064 21.152l-75.264 33.696c-23.904 10.688-39.904 36.48-42.304 65.312 56.768 38.496 95.040 109.472 95.040 190.72 0 122.016-86.112 221.312-192 221.312s-192-99.296-192-221.344c0-81.248 38.272-152.192 95.040-190.688-2.432-28.832-18.432-54.624-42.304-65.312l-118.496-53.024c-37.824-16.96-62.24-56.864-62.24-101.696v-55.936c0-8.832 7.168-16 16-16s16 7.168 16 16v55.936c0 31.744 17.376 60.864 43.296 72.448l118.496 53.024c30.944 13.856 52.64 43.2 59.616 77.92 20.8-8.896 43.168-14.016 66.624-14.016s45.824 5.12 66.624 14.016c6.944-34.752 28.672-64.096 59.616-77.92l75.264-33.696c2.112-0.928 4.352-1.376 6.528-1.376 6.016 0 11.872 3.52 14.528 9.472zM224 674.688c0 104.384 71.776 189.312 160 189.312s160-84.928 160-189.312v-0.032c0-104.384-71.776-189.312-160-189.312s-160 84.928-160 189.344z" />
<glyph unicode="&#xe922;" glyph-name="user-clock" d="M752 384c-97.024 0-176-78.944-176-176s78.976-176 176-176 176 78.944 176 176-78.976 176-176 176zM752 64c-79.392 0-144 64.608-144 144s64.608 144 144 144 144-64.608 144-144-64.608-144-144-144zM768 214.624v89.376c0 8.832-7.168 16-16 16s-16-7.168-16-16v-96c0-4.256 1.696-8.32 4.672-11.328l64-64c3.136-3.104 7.232-4.672 11.328-4.672s8.192 1.568 11.328 4.672c6.24 6.24 6.24 16.384 0 22.624l-59.328 59.328zM534.56 413.568l-11.264 5.056c-23.904 10.688-39.904 36.48-42.304 65.312 56.768 38.496 95.040 109.472 95.040 190.72-0.032 122.048-86.144 221.344-192.032 221.344s-192-99.296-192-221.344c0-81.248 38.272-152.192 95.040-190.688-2.432-28.832-18.432-54.624-42.304-65.312l-118.496-53.024c-37.824-16.96-62.24-56.864-62.24-101.696v-55.936c0-8.832 7.168-16 16-16s16 7.168 16 16v55.936c0 31.744 17.376 60.864 43.296 72.448l118.496 53.024c30.944 13.856 52.64 43.2 59.616 77.92 20.8-8.896 43.168-14.016 66.624-14.016s45.824 5.12 66.624 14.016c6.944-34.752 28.672-64.096 59.584-77.92l11.264-5.056c2.112-0.96 4.352-1.408 6.528-1.408 6.112 0 11.968 3.52 14.624 9.44 3.552 8.128-0.032 17.6-8.096 21.184zM224 674.688c0 104.384 71.776 189.312 160 189.312s160-84.928 160-189.312v-0.032c0-104.384-71.776-189.312-160-189.312s-160 84.928-160 189.344z" />
<glyph unicode="&#xe923;" glyph-name="user-graduate" d="M757.632 318.976c-57.856 21.696-117.632 44.128-117.632 81.024v11.712c39.168 42.624 64 104.224 64 172.896v113.088l180.672 54.976c6.72 2.080 11.328 8.288 11.328 15.328s-4.608 13.248-11.328 15.328l-368 112c-3.040 0.928-6.272 0.928-9.312 0l-368-112c-0.224-0.064-0.32-0.288-0.512-0.352-2.848-0.992-5.216-2.72-7.072-5.024-0.384-0.448-0.608-0.896-0.928-1.376-1.664-2.528-2.848-5.344-2.848-8.576v-170.784c-9.568-13.312-32-47.008-32-69.216 0-8.832 7.168-16 16-16h64c8.832 0 16 7.168 16 16 0 22.24-22.432 55.904-32 69.216v149.184l160-48.704v-113.088c0-68.672 24.832-130.272 64-172.896v-11.712c0-36.896-59.808-59.328-117.632-81.024-68.032-25.504-138.368-51.872-138.368-110.976v-128c0-8.832 7.168-16 16-16s16 7.168 16 16v128c0 36.896 59.808 59.328 117.632 81.024 61.92 23.2 125.152 47.424 136.096 96.096 28.8-20.864 62.336-33.12 98.272-33.12s69.472 12.256 98.272 33.152c10.976-48.672 74.176-72.896 136.096-96.096 57.856-21.728 117.632-44.16 117.632-81.056v-128c0-8.832 7.168-16 16-16s16 7.168 16 16v128c0 59.104-70.336 85.472-138.368 110.976zM133.216 544c2.816 5.984 6.624 12.768 10.784 19.52 4.192-6.752 7.968-13.568 10.784-19.52h-21.568zM198.944 768l313.056 95.296 313.056-95.296-313.056-95.296-313.056 95.296zM512 384c-88.224 0-160 89.984-160 200.64v103.328l155.328-47.296c1.536-0.448 3.104-0.672 4.672-0.672s3.136 0.224 4.672 0.672l155.328 47.296v-103.328c0-110.656-71.776-200.64-160-200.64z" />
<glyph unicode="&#xe924;" glyph-name="user-heart" d="M576 674.688c0 122.016-86.112 221.312-192 221.312s-192-99.296-192-221.344c0-81.248 38.272-152.192 95.040-190.688-2.432-28.832-18.432-54.624-42.304-65.312l-118.496-53.024c-37.824-16.96-62.24-56.864-62.24-101.696v-55.936c0-8.832 7.168-16 16-16s16 7.168 16 16v55.936c0 31.744 17.376 60.864 43.296 72.448l118.496 53.024c30.944 13.856 52.64 43.2 59.616 77.92 20.8-8.896 43.168-14.016 66.624-14.016s45.824 5.12 66.624 14.016c6.944-34.752 28.672-64.096 59.584-77.92l11.264-5.056c2.112-0.96 4.352-1.408 6.528-1.408 6.112 0 11.968 3.52 14.624 9.44 3.616 8.064 0 17.536-8.032 21.152l-11.264 5.056c-23.904 10.688-39.904 36.48-42.304 65.312 56.672 38.56 94.944 109.536 94.944 190.784zM384 485.344c-88.224 0-160 84.96-160 189.344s71.776 189.312 160 189.312 160-84.928 160-189.312v-0.032c0-104.416-71.776-189.312-160-189.312zM900.032 323.872c-37.344 37.408-98.176 37.472-135.616 0l-12.096-12.096-12.064 12.096c-37.344 37.408-98.176 37.472-135.616 0-18.112-18.112-28.096-42.24-28.096-67.872s9.984-49.76 28.096-67.872l136.384-136.576c3.008-3.008 7.040-4.672 11.296-4.672s8.288 1.696 11.296 4.672l136.416 136.576c37.376 37.408 37.376 98.336 0 135.744zM877.44 210.752l-125.12-125.28-125.088 125.28c-12.064 12.096-18.72 28.16-18.72 45.248s6.656 33.152 18.72 45.248c12.448 12.48 28.832 18.72 45.216 18.72 16.352 0 32.736-6.24 45.184-18.72l23.392-23.424c3.008-3.008 7.040-4.672 11.296-4.672s8.288 1.696 11.296 4.672l23.392 23.424c24.896 24.928 65.472 24.992 90.4 0 24.928-24.96 24.928-65.536 0.032-90.496z" />
<glyph unicode="&#xe925;" glyph-name="user-lock" d="M896 224h-32v64c0 52.928-43.072 96-96 96s-96-43.072-96-96v-64h-32c-17.664 0-32-14.368-32-32v-160c0-17.632 14.336-32 32-32h256c17.664 0 32 14.368 32 32v160c0 17.632-14.336 32-32 32zM704 288c0 35.296 28.704 64 64 64s64-28.704 64-64v-64h-128v64zM896 32h-256v160h256v-160zM598.528 384.96l-75.264 33.696c-23.904 10.688-39.904 36.48-42.304 65.312 56.768 38.496 95.040 109.472 95.040 190.72 0 122.016-86.112 221.312-192 221.312s-192-99.296-192-221.344c0-81.248 38.272-152.192 95.040-190.688-2.432-28.832-18.432-54.624-42.304-65.312l-118.496-53.024c-37.824-16.96-62.24-56.864-62.24-101.696v-55.936c0-8.832 7.168-16 16-16s16 7.168 16 16v55.936c0 31.744 17.376 60.864 43.296 72.448l118.496 53.024c30.944 13.856 52.64 43.2 59.616 77.92 20.8-8.896 43.168-14.016 66.624-14.016s45.824 5.12 66.624 14.016c6.944-34.752 28.672-64.096 59.616-77.92l75.264-33.696c2.112-0.928 4.352-1.376 6.528-1.376 6.080 0 11.936 3.52 14.592 9.472 3.552 8.064-0.064 17.536-8.128 21.152zM224 674.688c0 104.384 71.776 189.312 160 189.312s160-84.928 160-189.312v-0.032c0-104.384-71.776-189.312-160-189.312s-160 84.928-160 189.344z" />
<glyph unicode="&#xe926;" glyph-name="user-magnifying-glass, user-search" d="M923.328 59.328l-118.624 118.624c16.832 21.664 27.296 48.544 27.296 78.048 0 70.592-57.408 128-128 128s-128-57.408-128-128 57.408-128 128-128c29.536 0 56.416 10.464 78.080 27.296l118.624-118.624c3.104-3.104 7.2-4.672 11.296-4.672s8.192 1.568 11.328 4.672c6.24 6.272 6.24 16.384 0 22.656zM704 160c-52.928 0-96 43.072-96 96s43.072 96 96 96 96-43.072 96-96-43.072-96-96-96zM534.56 413.568l-11.264 5.056c-23.904 10.688-39.904 36.48-42.304 65.312 56.768 38.496 95.040 109.472 95.040 190.72-0.032 122.048-86.144 221.344-192.032 221.344s-192-99.296-192-221.344c0-81.248 38.272-152.192 95.040-190.688-2.432-28.832-18.432-54.624-42.304-65.312l-118.496-53.024c-37.824-16.96-62.24-56.864-62.24-101.696v-55.936c0-8.832 7.168-16 16-16s16 7.168 16 16v55.936c0 31.744 17.376 60.864 43.296 72.448l118.496 53.024c30.944 13.856 52.64 43.2 59.616 77.92 20.8-8.896 43.168-14.016 66.624-14.016s45.824 5.12 66.624 14.016c6.944-34.752 28.672-64.096 59.584-77.92l11.264-5.056c2.112-0.96 4.352-1.408 6.528-1.408 6.112 0 11.968 3.52 14.624 9.44 3.552 8.128-0.032 17.6-8.096 21.184zM224 674.688c0 104.384 71.776 189.312 160 189.312s160-84.928 160-189.312v-0.032c0-104.384-71.776-189.312-160-189.312s-160 84.928-160 189.344z" />
<glyph unicode="&#xe927;" glyph-name="user-edit" d="M866.688 384c-16.32 0-31.68-6.368-43.232-17.92l-208.128-208.096c-3.456-3.456-6.144-7.808-7.712-12.512l-30.816-92.416c-1.92-5.76-0.416-12.096 3.872-16.384 3.072-3.040 7.136-4.672 11.328-4.672 1.696 0 3.392 0.256 5.056 0.832l92.352 30.784c4.672 1.536 9.024 4.224 12.576 7.744l208.128 208.096c11.552 11.552 17.92 26.88 17.92 43.232v0.192c-0.032 33.696-27.424 61.12-61.344 61.12zM896 322.688c0-7.776-3.040-15.104-8.544-20.608l-208.128-208.096-62.048-20.672 20.672 62.048 208.128 208.096c5.504 5.504 12.832 8.544 20.8 8.544 16.064 0 29.12-13.056 29.12-29.12v-0.192zM592 354.336c6.080 0 11.936 3.52 14.592 9.472 3.616 8.064 0 17.536-8.064 21.152l-75.264 33.696c-23.904 10.688-39.904 36.48-42.304 65.312 56.768 38.496 95.040 109.472 95.040 190.72 0 122.016-86.112 221.312-192 221.312s-192-99.296-192-221.344c0-81.248 38.272-152.192 95.040-190.688-2.432-28.832-18.432-54.624-42.304-65.312l-118.496-53.024c-37.824-16.96-62.24-56.864-62.24-101.696v-55.936c0-8.832 7.168-16 16-16s16 7.168 16 16v55.936c0 31.744 17.376 60.864 43.296 72.448l118.496 53.024c30.944 13.856 52.64 43.2 59.616 77.92 20.8-8.896 43.168-14.016 66.624-14.016s45.824 5.12 66.624 14.016c6.944-34.752 28.672-64.096 59.616-77.92l75.264-33.696c2.048-0.928 4.288-1.376 6.464-1.376zM224 674.688c0 104.384 71.776 189.312 160 189.312s160-84.928 160-189.312v-0.032c0-104.384-71.776-189.312-160-189.312s-160 84.928-160 189.344z" />
<glyph unicode="&#xe928;" glyph-name="user-wrench" d="M942.752 333.12c-10.496 4.352-22.464 1.984-30.496-6.048l-51.2-51.232-41.216 41.44 50.88 50.848c8.064 8 10.496 20 6.144 30.56s-14.496 17.312-25.856 17.312h-35.168c-61.664 0-111.84-50.272-111.84-112.064v-37.344c0-12.8-4.992-24.832-14.048-33.92l-128.096-128.128c-11.52-11.584-17.856-26.944-17.856-43.488 0.032-33.664 27.456-61.056 61.536-61.056 16.352 0 31.712 6.368 43.264 17.952l127.84 127.968c8.928 8.96 21.344 14.080 33.984 14.080h37.536c61.664 0 111.84 50.272 111.84 112.064v35.168c0 11.36-6.784 21.504-17.248 25.888zM928 272.064c0-44.128-35.808-80.064-79.84-80.064h-37.536c-21.088 0-41.76-8.576-56.64-23.456l-127.84-128c-5.504-5.504-12.832-8.544-21.024-8.544-16.032 0-29.088 13.056-29.12 29.312 0 7.68 3.104 15.2 8.512 20.608l128.064 128.128c15.104 15.104 23.424 35.168 23.424 56.544v37.344c0 44.128 35.808 80.064 79.84 80.064h25.504l-44.096-44.032c-12.48-12.448-12.512-32.736-0.096-45.248 0 0 0 0 0 0l41.248-41.472c6.016-6.048 14.048-9.408 22.624-9.408h0.032c8.544 0 16.576 3.328 22.592 9.344l44.352 44.384v-25.504zM592 354.336c6.080 0 11.936 3.52 14.592 9.472 3.616 8.064 0 17.536-8.064 21.152l-75.264 33.696c-23.904 10.688-39.904 36.48-42.304 65.312 56.768 38.496 95.040 109.472 95.040 190.72 0 122.016-86.112 221.312-192 221.312s-192-99.296-192-221.344c0-81.248 38.272-152.192 95.040-190.688-2.432-28.832-18.432-54.624-42.304-65.312l-118.496-53.024c-37.824-16.96-62.24-56.864-62.24-101.696v-55.936c0-8.832 7.168-16 16-16s16 7.168 16 16v55.936c0 31.744 17.376 60.864 43.296 72.448l118.496 53.024c30.944 13.856 52.64 43.2 59.616 77.92 20.8-8.896 43.168-14.016 66.624-14.016s45.824 5.12 66.624 14.016c6.944-34.752 28.672-64.096 59.616-77.92l75.264-33.696c2.048-0.928 4.288-1.376 6.464-1.376zM224 674.688c0 104.384 71.776 189.312 160 189.312s160-84.928 160-189.312v-0.032c0-104.384-71.776-189.312-160-189.312s-160 84.928-160 189.344z" />
<glyph unicode="&#xe929;" glyph-name="user-ban" d="M876.736 332.032c-0.128 0.128-0.16 0.32-0.288 0.416-0.128 0.128-0.288 0.16-0.448 0.288-31.84 31.648-75.68 51.264-124 51.264-97.024 0-176-78.944-176-176 0-48.352 19.616-92.192 51.264-124.032 0.128-0.128 0.16-0.32 0.288-0.416 0.128-0.128 0.288-0.16 0.448-0.288 31.84-31.648 75.68-51.264 124-51.264 97.024 0 176 78.944 176 176 0 48.352-19.616 92.192-51.264 124.032zM608 208c0 79.392 64.608 144 144 144 33.92 0 64.736-12.288 89.376-32l-201.376-201.376c-19.712 24.64-32 55.456-32 89.376zM752 64c-33.92 0-64.736 12.288-89.376 32l201.376 201.376c19.712-24.64 32-55.456 32-89.376 0-79.392-64.608-144-144-144zM534.56 413.568l-11.264 5.056c-23.904 10.688-39.904 36.48-42.304 65.312 56.768 38.496 95.040 109.472 95.040 190.72-0.032 122.048-86.144 221.344-192.032 221.344s-192-99.296-192-221.344c0-81.248 38.272-152.192 95.040-190.688-2.432-28.832-18.432-54.624-42.304-65.312l-118.496-53.024c-37.824-16.96-62.24-56.864-62.24-101.696v-55.936c0-8.832 7.168-16 16-16s16 7.168 16 16v55.936c0 31.744 17.376 60.864 43.296 72.448l118.496 53.024c30.944 13.856 52.64 43.2 59.616 77.92 20.8-8.896 43.168-14.016 66.624-14.016s45.824 5.12 66.624 14.016c6.944-34.752 28.672-64.096 59.584-77.92l11.264-5.056c2.112-0.96 4.352-1.408 6.528-1.408 6.112 0 11.968 3.52 14.624 9.44 3.552 8.128-0.032 17.6-8.096 21.184zM224 674.688c0 104.384 71.776 189.312 160 189.312s160-84.928 160-189.312v-0.032c0-104.384-71.776-189.312-160-189.312s-160 84.928-160 189.344z" />
<glyph unicode="&#xe92a;" glyph-name="user-cursor" d="M576 674.688c0 122.016-86.112 221.312-192 221.312s-192-99.296-192-221.344c0-81.248 38.272-152.192 95.040-190.688-2.432-28.832-18.432-54.624-42.304-65.312l-118.496-53.024c-37.824-16.96-62.24-56.864-62.24-101.696v-55.936c0-8.832 7.168-16 16-16s16 7.168 16 16v55.936c0 31.744 17.376 60.864 43.296 72.448l118.496 53.024c30.944 13.856 52.64 43.2 59.616 77.92 20.8-8.896 43.168-14.016 66.624-14.016s45.824 5.12 66.624 14.016c6.944-34.752 28.672-64.096 59.584-77.92l11.264-5.056c2.112-0.96 4.352-1.408 6.528-1.408 6.112 0 11.968 3.52 14.624 9.44 3.616 8.064 0 17.536-8.032 21.152l-11.264 5.056c-23.904 10.688-39.904 36.48-42.304 65.312 56.672 38.56 94.944 109.536 94.944 190.784zM384 485.344c-88.224 0-160 84.96-160 189.344s71.776 189.312 160 189.312 160-84.928 160-189.312v-0.032c0-104.416-71.776-189.312-160-189.312zM848 64h-32c-26.464 0-48 21.536-48 48v80h48c8.832 0 16 7.168 16 16s-7.168 16-16 16h-48v80c0 26.464 21.536 48 48 48h32c8.832 0 16 7.168 16 16s-7.168 16-16 16h-32c-26.112 0-49.408-12.608-64-32.032-14.592 19.424-37.888 32.032-64 32.032h-32c-8.832 0-16-7.168-16-16s7.168-16 16-16h32c26.464 0 48-21.536 48-48v-80h-48c-8.832 0-16-7.168-16-16s7.168-16 16-16h48v-80c0-26.464-21.536-48-48-48h-32c-8.832 0-16-7.168-16-16s7.168-16 16-16h32c26.112 0 49.408 12.608 64 32.032 14.592-19.424 37.888-32.032 64-32.032h32c8.832 0 16 7.168 16 16s-7.168 16-16 16z" />
<glyph unicode="&#xe92b;" glyph-name="cart-arrow-up" d="M368 160c-26.51 0-48-21.49-48-48s21.49-48 48-48c26.51 0 48 21.49 48 48v0c-0.031 26.497-21.503 47.969-47.997 48h-0.003zM368 96c-8.837 0-16 7.163-16 16s7.163 16 16 16c8.837 0 16-7.163 16-16v0c0-8.837-7.163-16-16-16v0zM752 160c-26.51 0-48-21.49-48-48s21.49-48 48-48c26.51 0 48 21.49 48 48v0c-0.031 26.497-21.503 47.969-47.997 48h-0.003zM752 96c-8.837 0-16 7.163-16 16s7.163 16 16 16c8.837 0 16-7.163 16-16v0c-0.011-8.832-7.168-15.989-15.999-16h-0.001zM949.062 607.171c-1.51 0.52-3.249 0.819-5.059 0.819-7.026 0-12.996-4.523-15.157-10.816l-0.034-0.113-78-234.109c-2.2-6.417-8.18-10.949-15.219-10.954h-562.737l-106.39 319.187c-6.532 19.226-24.423 32.813-45.488 32.813-0.015 0-0.029 0-0.044 0h-40.935c-8.837 0-16-7.163-16-16s7.163-16 16-16v0h40.938c0.003 0 0.006 0 0.009 0 7.026 0 12.993-4.528 15.145-10.825l0.033-0.113 145.408-436.25c6.532-19.226 24.423-32.813 45.488-32.813 0.015 0 0.029 0 0.044 0h488.935c8.837 0 16 7.163 16 16s-7.163 16-16 16v0h-488.938c-0.003 0-0.006 0-0.009 0-7.026 0-12.993 4.528-15.145 10.825l-0.033 0.113-28.355 85.062h552.074c0.008 0 0.018 0 0.028 0 21.077 0 38.98 13.584 45.434 32.475l0.1 0.338 78.032 234.125c0.519 1.508 0.819 3.246 0.819 5.054 0 7.028-4.531 12.997-10.831 15.147l-0.113 0.033zM443.312 644.688l100.688 100.688v-281.376c0-8.837 7.163-16 16-16s16 7.163 16 16v0 281.376l100.688-100.688c2.874-2.779 6.795-4.491 11.115-4.491 8.837 0 16 7.163 16 16 0 4.321-1.712 8.241-4.496 11.12l-127.996 127.996c-2.895 2.894-6.895 4.685-11.312 4.685s-8.417-1.79-11.312-4.685l-128-128c-2.779-2.874-4.491-6.795-4.491-11.115 0-8.837 7.163-16 16-16 4.321 0 8.241 1.712 11.12 4.496l-0.004-0.004z" />
<glyph unicode="&#xe92c;" glyph-name="cart-check" d="M368 160c-26.51 0-48-21.49-48-48s21.49-48 48-48c26.51 0 48 21.49 48 48v0c-0.031 26.497-21.503 47.969-47.997 48h-0.003zM368 96c-8.837 0-16 7.163-16 16s7.163 16 16 16c8.837 0 16-7.163 16-16v0c0-8.837-7.163-16-16-16v0zM752 160c-26.51 0-48-21.49-48-48s21.49-48 48-48c26.51 0 48 21.49 48 48v0c-0.031 26.497-21.503 47.969-47.997 48h-0.003zM752 96c-8.837 0-16 7.163-16 16s7.163 16 16 16c8.837 0 16-7.163 16-16v0c-0.011-8.832-7.168-15.989-15.999-16h-0.001zM949.062 607.171c-1.507 0.517-3.244 0.816-5.050 0.816-7.027 0-12.999-4.52-15.165-10.812l-0.034-0.113-78-234.109c-2.2-6.417-8.18-10.949-15.219-10.954h-562.737l-106.39 319.187c-6.532 19.226-24.423 32.813-45.488 32.813-0.015 0-0.029 0-0.044 0h-40.935c-8.837 0-16-7.163-16-16s7.163-16 16-16v0h40.938c0.003 0 0.006 0 0.009 0 7.026 0 12.993-4.528 15.145-10.825l0.033-0.113 145.408-436.25c6.532-19.226 24.423-32.813 45.488-32.813 0.015 0 0.029 0 0.044 0h488.935c8.837 0 16 7.163 16 16s-7.163 16-16 16v0h-488.938c-0.003 0-0.006 0-0.009 0-7.026 0-12.993 4.528-15.145 10.825l-0.033 0.113-28.355 85.062h552.074c0.008 0 0.018 0 0.028 0 21.077 0 38.98 13.584 45.434 32.475l0.1 0.338 78.032 234.125c0.519 1.508 0.819 3.246 0.819 5.054 0 7.028-4.531 12.997-10.831 15.147l-0.113 0.033zM500.688 516.688c2.895-2.894 6.895-4.685 11.312-4.685s8.417 1.79 11.312 4.685l192 192c2.779 2.874 4.491 6.795 4.491 11.115 0 8.837-7.163 16-16 16-4.321 0-8.241-1.712-11.12-4.496l-180.684-180.684-84.688 84.688c-2.874 2.779-6.795 4.491-11.115 4.491-8.837 0-16-7.163-16-16 0-4.321 1.712-8.241 4.496-11.12l-0.004 0.004z" />
<glyph unicode="&#xe92d;" glyph-name="cart-empty" d="M368 160c-26.51 0-48-21.49-48-48s21.49-48 48-48c26.51 0 48 21.49 48 48v0c0 26.51-21.49 48-48 48v0zM368 96c-8.837 0-16 7.163-16 16s7.163 16 16 16c8.837 0 16-7.163 16-16v0c0-8.837-7.163-16-16-16v0zM752 160c-26.51 0-48-21.49-48-48s21.49-48 48-48c26.51 0 48 21.49 48 48v0c0 26.51-21.49 48-48 48v0zM752 96c-8.837 0-16 7.163-16 16s7.163 16 16 16c8.837 0 16-7.163 16-16v0c0-8.837-7.163-16-16-16v0zM949.056 607.168c-1.515 0.524-3.261 0.827-5.078 0.827-7.026 0-12.994-4.529-15.145-10.826l-0.033-0.113-77.984-234.112c-2.183-6.413-8.152-10.944-15.18-10.944-0.018 0-0.036 0-0.055 0h-562.717l-106.464 319.2c-6.551 19.204-24.423 32.774-45.469 32.8h-40.931c-8.837 0-16-7.163-16-16s7.163-16 16-16v0h40.928c0.006 0 0.013 0 0.020 0 7.028 0 12.997-4.531 15.147-10.831l0.033-0.113 145.472-436.256c6.551-19.204 24.423-32.774 45.469-32.8h488.931c8.837 0 16 7.163 16 16s-7.163 16-16 16v0h-488.928c-0.006 0-0.013 0-0.020 0-7.028 0-12.997 4.531-15.147 10.831l-0.033 0.113-28.352 85.056h552.064c0.011 0 0.025 0 0.038 0 21.072 0 38.972 13.578 45.429 32.462l0.1 0.338 78.048 234.144c0.516 1.504 0.814 3.237 0.814 5.039 0 7.033-4.538 13.006-10.846 15.152l-0.113 0.033z" />
<glyph unicode="&#xe92e;" glyph-name="cart-full" d="M368 160c-26.51 0-48-21.49-48-48s21.49-48 48-48c26.51 0 48 21.49 48 48v0c-0.031 26.497-21.503 47.969-47.997 48h-0.003zM368 96c-8.837 0-16 7.163-16 16s7.163 16 16 16c8.837 0 16-7.163 16-16v0c0-8.837-7.163-16-16-16v0zM752 160c-26.51 0-48-21.49-48-48s21.49-48 48-48c26.51 0 48 21.49 48 48v0c-0.031 26.497-21.503 47.969-47.997 48h-0.003zM752 96c-8.837 0-16 7.163-16 16s7.163 16 16 16c8.837 0 16-7.163 16-16v0c-0.011-8.832-7.168-15.989-15.999-16h-0.001zM956.97 601.36c-2.931 4.042-7.638 6.64-12.952 6.64-0.006 0-0.012 0-0.019 0h-153.375l-219.312 219.312c-2.895 2.894-6.895 4.685-11.312 4.685s-8.417-1.79-11.312-4.685l-219.312-219.312h-141.856l-21.053 63.187c-6.532 19.226-24.423 32.813-45.488 32.813-0.015 0-0.029 0-0.044 0h-40.935c-8.837 0-16-7.163-16-16s7.163-16 16-16v0h40.938c0.003 0 0.006 0 0.009 0 7.026 0 12.993-4.528 15.145-10.825l0.033-0.113 145.408-436.25c6.532-19.226 24.423-32.813 45.488-32.813 0.015 0 0.029 0 0.044 0h488.935c8.837 0 16 7.163 16 16s-7.163 16-16 16v0h-488.938c-0.003 0-0.006 0-0.009 0-7.026 0-12.993 4.528-15.145 10.825l-0.033 0.113-28.355 85.062h552.074c0.008 0 0.018 0 0.028 0 21.077 0 38.98 13.584 45.434 32.475l0.1 0.338 78.032 234.125c0.521 1.508 0.822 3.246 0.822 5.055 0 3.52-1.14 6.774-3.071 9.413l0.031-0.045zM560 793.376l185.376-185.376h-370.752zM850.813 362.954c-2.2-6.417-8.18-10.949-15.219-10.954h-562.737l-74.662 224h723.616z" />
<glyph unicode="&#xe92f;" glyph-name="cart-heart" d="M368 160c-26.51 0-48-21.49-48-48s21.49-48 48-48c26.51 0 48 21.49 48 48v0c-0.031 26.497-21.503 47.969-47.997 48h-0.003zM368 96c-8.837 0-16 7.163-16 16s7.163 16 16 16c8.837 0 16-7.163 16-16v0c0-8.837-7.163-16-16-16v0zM752 160c-26.51 0-48-21.49-48-48s21.49-48 48-48c26.51 0 48 21.49 48 48v0c-0.031 26.497-21.503 47.969-47.997 48h-0.003zM752 96c-8.837 0-16 7.163-16 16s7.163 16 16 16c8.837 0 16-7.163 16-16v0c-0.011-8.832-7.168-15.989-15.999-16h-0.001zM949.062 607.171c-1.507 0.517-3.244 0.816-5.050 0.816-7.027 0-12.999-4.52-15.165-10.812l-0.034-0.113-78-234.109c-2.2-6.417-8.18-10.949-15.219-10.954h-562.737l-106.39 319.187c-6.532 19.226-24.423 32.813-45.488 32.813-0.015 0-0.029 0-0.044 0h-40.935c-8.837 0-16-7.163-16-16s7.163-16 16-16v0h40.938c0.003 0 0.006 0 0.009 0 7.026 0 12.993-4.528 15.145-10.825l0.033-0.113 145.408-436.25c6.532-19.226 24.423-32.813 45.488-32.813 0.015 0 0.029 0 0.044 0h488.935c8.837 0 16 7.163 16 16s-7.163 16-16 16v0h-488.938c-0.003 0-0.006 0-0.009 0-7.026 0-12.993 4.528-15.145 10.825l-0.033 0.113-28.355 85.062h552.074c0.008 0 0.018 0 0.028 0 21.077 0 38.98 13.584 45.434 32.475l0.1 0.338 78.032 234.125c0.519 1.508 0.819 3.246 0.819 5.054 0 7.028-4.531 12.997-10.831 15.147l-0.113 0.033zM549.027 467.546c2.89-2.894 6.885-4.685 11.298-4.685s8.408 1.79 11.297 4.685l136.416 136.579c17.432 17.373 28.218 41.406 28.218 67.957 0 52.986-42.953 95.939-95.939 95.939-26.516 0-50.519-10.757-67.884-28.145l-12.11-12.11-12.077 12.109c-17.35 17.291-41.287 27.982-67.721 27.982-52.986 0-95.939-42.953-95.939-95.939 0-26.47 10.72-50.436 28.055-67.794l-0.001 0.001zM435.235 717.251c11.572 11.565 27.555 18.717 45.208 18.717s33.636-7.152 45.208-18.717v0l23.36-23.424c2.889-2.896 6.884-4.687 11.298-4.687s8.408 1.792 11.297 4.687v0l23.408 23.424c11.574 11.564 27.558 18.717 45.213 18.717 35.328 0 63.968-28.639 63.968-63.968 0-17.674-7.168-33.673-18.754-45.251v0l-125.12-125.264-125.088 125.264c-11.571 11.585-18.727 27.583-18.727 45.251s7.156 33.666 18.728 45.252l-0.001-0.001z" />
<glyph unicode="&#xe930;" glyph-name="cart-lock" d="M368 160c-26.51 0-48-21.49-48-48s21.49-48 48-48c26.51 0 48 21.49 48 48v0c-0.031 26.497-21.503 47.969-47.997 48h-0.003zM368 96c-8.837 0-16 7.163-16 16s7.163 16 16 16c8.837 0 16-7.163 16-16v0c0-8.837-7.163-16-16-16v0zM752 160c-26.51 0-48-21.49-48-48s21.49-48 48-48c26.51 0 48 21.49 48 48v0c-0.031 26.497-21.503 47.969-47.997 48h-0.003zM752 96c-8.837 0-16 7.163-16 16s7.163 16 16 16c8.837 0 16-7.163 16-16v0c-0.011-8.832-7.168-15.989-15.999-16h-0.001zM949.062 607.171c-1.507 0.517-3.244 0.816-5.050 0.816-7.027 0-12.999-4.52-15.165-10.812l-0.034-0.113-78-234.109c-2.2-6.417-8.18-10.949-15.219-10.954h-562.737l-106.39 319.187c-6.532 19.226-24.423 32.813-45.488 32.813-0.015 0-0.029 0-0.044 0h-40.935c-8.837 0-16-7.163-16-16s7.163-16 16-16v0h40.938c0.003 0 0.006 0 0.009 0 7.026 0 12.993-4.528 15.145-10.825l0.033-0.113 145.408-436.25c6.532-19.226 24.423-32.813 45.488-32.813 0.015 0 0.029 0 0.044 0h488.935c8.837 0 16 7.163 16 16s-7.163 16-16 16v0h-488.938c-0.003 0-0.006 0-0.009 0-7.026 0-12.993 4.528-15.145 10.825l-0.033 0.113-28.355 85.062h552.074c0.008 0 0.018 0 0.028 0 21.077 0 38.98 13.584 45.434 32.475l0.1 0.338 78.032 234.125c0.519 1.508 0.819 3.246 0.819 5.054 0 7.028-4.531 12.997-10.831 15.147l-0.113 0.033zM418.387 443.619h256c17.667 0.016 31.984 14.333 32 31.998v160.002c-0.016 17.667-14.333 31.984-31.998 32h-32.002v64c0 53.019-42.981 96-96 96s-96-42.981-96-96v0-64h-32c-17.666-0.018-31.982-14.334-32-31.998v-160.002c0.018-17.666 14.334-31.982 31.998-32h0.002zM482.387 731.619c0 35.346 28.654 64 64 64s64-28.654 64-64v0-64h-128zM418.387 635.619h256v-160h-256z" />
<glyph unicode="&#xe931;" glyph-name="cart-magnifying-glass, cart-search" d="M368 160c-26.51 0-48-21.49-48-48s21.49-48 48-48c26.51 0 48 21.49 48 48v0c-0.031 26.497-21.503 47.969-47.997 48h-0.003zM368 96c-8.837 0-16 7.163-16 16s7.163 16 16 16c8.837 0 16-7.163 16-16v0c0-8.837-7.163-16-16-16v0zM752 160c-26.51 0-48-21.49-48-48s21.49-48 48-48c26.51 0 48 21.49 48 48v0c-0.031 26.497-21.503 47.969-47.997 48h-0.003zM752 96c-8.837 0-16 7.163-16 16s7.163 16 16 16c8.837 0 16-7.163 16-16v0c-0.011-8.832-7.168-15.989-15.999-16h-0.001zM949.062 607.171c-1.507 0.517-3.244 0.816-5.050 0.816-7.027 0-12.999-4.52-15.165-10.812l-0.034-0.113-78-234.109c-2.2-6.417-8.18-10.949-15.219-10.954h-562.737l-106.39 319.187c-6.532 19.226-24.423 32.813-45.488 32.813-0.015 0-0.029 0-0.044 0h-40.935c-8.837 0-16-7.163-16-16s7.163-16 16-16v0h40.938c0.003 0 0.006 0 0.009 0 7.026 0 12.993-4.528 15.145-10.825l0.033-0.113 145.408-436.25c6.532-19.226 24.423-32.813 45.488-32.813 0.015 0 0.029 0 0.044 0h488.935c8.837 0 16 7.163 16 16s-7.163 16-16 16v0h-488.938c-0.003 0-0.006 0-0.009 0-7.026 0-12.993 4.528-15.145 10.825l-0.033 0.113-28.355 85.062h552.074c0.008 0 0.018 0 0.028 0 21.077 0 38.98 13.584 45.434 32.475l0.1 0.338 78.032 234.125c0.519 1.508 0.819 3.246 0.819 5.054 0 7.028-4.531 12.997-10.831 15.147l-0.113 0.033zM480 576c29.624 0.119 56.827 10.384 78.339 27.498l-0.259-0.199 118.611-118.611c2.874-2.779 6.795-4.491 11.115-4.491 8.837 0 16 7.163 16 16 0 4.321-1.712 8.241-4.496 11.12l-118.61 118.604c16.915 21.253 27.18 48.456 27.299 78.053v0.027c0 70.692-57.308 128-128 128s-128-57.308-128-128c0-70.692 57.308-128 128-128v0zM480 800c53.019 0 96-42.981 96-96s-42.981-96-96-96c-53.019 0-96 42.981-96 96v0c0.060 52.995 43.005 95.94 95.994 96h0.006z" />
<glyph unicode="&#xe932;" glyph-name="cart-edit" d="M368 160c-26.51 0-48-21.49-48-48s21.49-48 48-48c26.51 0 48 21.49 48 48v0c-0.031 26.497-21.503 47.969-47.997 48h-0.003zM368 96c-8.837 0-16 7.163-16 16s7.163 16 16 16c8.837 0 16-7.163 16-16v0c0-8.837-7.163-16-16-16v0zM752 160c-26.51 0-48-21.49-48-48s21.49-48 48-48c26.51 0 48 21.49 48 48v0c-0.031 26.497-21.503 47.969-47.997 48h-0.003zM752 96c-8.837 0-16 7.163-16 16s7.163 16 16 16c8.837 0 16-7.163 16-16v0c-0.011-8.832-7.168-15.989-15.999-16h-0.001zM949.062 607.171c-1.507 0.517-3.244 0.816-5.050 0.816-7.027 0-12.999-4.52-15.165-10.812l-0.034-0.113-78-234.109c-2.2-6.417-8.18-10.949-15.219-10.954h-562.737l-106.39 319.187c-6.532 19.226-24.423 32.813-45.488 32.813-0.015 0-0.029 0-0.044 0h-40.935c-8.837 0-16-7.163-16-16s7.163-16 16-16v0h40.938c0.003 0 0.006 0 0.009 0 7.026 0 12.993-4.528 15.145-10.825l0.033-0.113 145.408-436.25c6.532-19.226 24.423-32.813 45.488-32.813 0.015 0 0.029 0 0.044 0h488.935c8.837 0 16 7.163 16 16s-7.163 16-16 16v0h-488.938c-0.003 0-0.006 0-0.009 0-7.026 0-12.993 4.528-15.145 10.825l-0.033 0.113-28.355 85.062h552.074c0.008 0 0.018 0 0.028 0 21.077 0 38.98 13.584 45.434 32.475l0.1 0.338 78.032 234.125c0.519 1.508 0.819 3.246 0.819 5.054 0 7.028-4.531 12.997-10.831 15.147l-0.113 0.033zM400 448c0.006 0 0.013 0 0.020 0 1.805 0 3.538 0.303 5.153 0.862l-0.111-0.033 92.342 30.781c4.921 1.669 9.128 4.324 12.564 7.751l208.111 208.108c11.069 10.989 17.92 26.212 17.92 43.036 0 0.064 0 0.129 0 0.193v-0.010 0.192c-0.081 33.767-27.473 61.109-61.251 61.109-16.899 0-32.199-6.843-43.281-17.91l-208.108-208.095c-3.41-3.419-6.054-7.603-7.651-12.273l-0.067-0.226-30.813-92.422c-0.521-1.511-0.822-3.251-0.822-5.062 0-8.834 7.16-15.996 15.993-16v0zM445.968 551.36l208.112 208.109c5.292 5.279 12.596 8.544 20.663 8.544 16.115 0 29.186-13.028 29.257-29.126v-0.199c0-0.024 0-0.052 0-0.080 0-8.018-3.261-15.274-8.53-20.514l-208.11-208.11-62.080-20.688z" />
<glyph unicode="&#xe933;" glyph-name="cart-times, cart-x" d="M368 160c-26.51 0-48-21.49-48-48s21.49-48 48-48c26.51 0 48 21.49 48 48v0c-0.031 26.497-21.503 47.969-47.997 48h-0.003zM368 96c-8.837 0-16 7.163-16 16s7.163 16 16 16c8.837 0 16-7.163 16-16v0c0-8.837-7.163-16-16-16v0zM752 160c-26.51 0-48-21.49-48-48s21.49-48 48-48c26.51 0 48 21.49 48 48v0c-0.031 26.497-21.503 47.969-47.997 48h-0.003zM752 96c-8.837 0-16 7.163-16 16s7.163 16 16 16c8.837 0 16-7.163 16-16v0c-0.011-8.832-7.168-15.989-15.999-16h-0.001zM949.062 607.171c-1.51 0.52-3.249 0.819-5.059 0.819-7.026 0-12.996-4.523-15.157-10.816l-0.034-0.113-78-234.109c-2.2-6.417-8.18-10.949-15.219-10.954h-562.737l-106.39 319.187c-6.532 19.226-24.423 32.813-45.488 32.813-0.015 0-0.029 0-0.044 0h-40.935c-8.837 0-16-7.163-16-16s7.163-16 16-16v0h40.938c0.003 0 0.006 0 0.009 0 7.026 0 12.993-4.528 15.145-10.825l0.033-0.113 145.408-436.25c6.532-19.226 24.423-32.813 45.488-32.813 0.015 0 0.029 0 0.044 0h488.935c8.837 0 16 7.163 16 16s-7.163 16-16 16v0h-488.938c-0.003 0-0.006 0-0.009 0-7.026 0-12.993 4.528-15.145 10.825l-0.033 0.113-28.355 85.062h552.074c0.008 0 0.018 0 0.028 0 21.077 0 38.98 13.584 45.434 32.475l0.1 0.338 78.032 234.125c0.519 1.508 0.819 3.246 0.819 5.054 0 7.028-4.531 12.997-10.831 15.147l-0.113 0.033zM436.688 500.72c2.895-2.894 6.895-4.685 11.312-4.685s8.417 1.79 11.312 4.685l100.688 100.685 100.688-100.685c2.874-2.779 6.795-4.491 11.115-4.491 8.837 0 16 7.163 16 16 0 4.321-1.712 8.241-4.496 11.12l-100.684 100.684 100.688 100.688c2.779 2.874 4.491 6.795 4.491 11.115 0 8.837-7.163 16-16 16-4.321 0-8.241-1.712-11.12-4.496l-100.684-100.684-100.688 100.688c-2.874 2.779-6.795 4.491-11.115 4.491-8.837 0-16-7.163-16-16 0-4.321 1.712-8.241 4.496-11.12l100.684-100.684-100.688-100.688c-2.894-2.895-4.685-6.895-4.685-11.312s1.79-8.417 4.685-11.312v0z" />
<glyph unicode="&#xe934;" glyph-name="user-headset" d="M704 480c0-17.673-14.327-32-32-32s-32 14.327-32 32c0 17.673 14.327 32 32 32s32-14.327 32-32zM877.76 427.68l-67.968 81.568c-6.272 7.52-10.080 17.536-11.040 28.864-3.552 43.072-15.616 84.16-35.904 122.368 27.872 21.44 41.728 55.904 35.808 91.712-7.488 45.536-50.144 79.808-99.232 79.808h-241.824c-173.984 0-318.464-131.552-328.96-299.488-6.496-104.192 38.176-205.248 119.488-270.368 25.344-20.288 39.872-51.456 39.872-85.472v-98.4c0-8.832 7.168-16 16-16s16 7.168 16 16v98.4c0 43.808-18.912 84.064-51.872 110.464-73.216 58.592-113.408 149.6-107.552 243.36 8.608 137.92 118.144 248.288 256.672 266.528v-253.152c-0.448 0-0.832 0.128-1.248 0.128-52.928 0-96-43.072-96-96s43.072-96 96-96c26.88 0 51.136 11.168 68.576 29.056l130.304-90.208c2.784-1.952 5.952-2.848 9.12-2.848 5.056 0 10.048 2.4 13.152 6.912 5.024 7.264 3.232 17.216-4.064 22.24l-130.4 90.272c5.824 12.384 9.312 26.016 9.312 40.576 0 41.216-26.24 76.128-62.752 89.728v261.888c2.784 0.064 5.536 0.384 8.352 0.384h241.824c33.568 0 62.656-22.784 67.648-52.96 4.544-27.584-8.448-53.952-33.088-67.2-3.84-2.048-6.688-5.6-7.84-9.824-1.184-4.192-0.608-8.672 1.632-12.448 22.368-37.76 35.488-78.816 39.104-122.080 1.44-17.952 7.776-34.080 18.336-46.752l67.968-81.536-74.688-27.36c-6.304-2.304-10.496-8.32-10.496-15.040v-92.8c0-61.76-50.24-112-112-112h-64c-8.832 0-16-7.168-16-16v-64c0-8.832 7.168-16 16-16s16 7.168 16 16v48h48c79.392 0 144 64.608 144 144v81.632l64.224 23.52c9.728 3.584 17.152 11.712 19.84 21.76 2.688 9.984 0.352 20.768-6.304 28.768zM480 448c0-35.296-28.704-64-64-64s-64 28.704-64 64 28.704 64 64 64 64-28.704 64-64z" />
<glyph unicode="&#xe935;" glyph-name="user-play" d="M576 674.688c0 122.016-86.112 221.312-192 221.312s-192-99.296-192-221.344c0-81.248 38.272-152.192 95.040-190.688-2.432-28.832-18.432-54.624-42.304-65.312l-118.496-53.024c-37.824-16.96-62.24-56.864-62.24-101.696v-55.936c0-8.832 7.168-16 16-16s16 7.168 16 16v55.936c0 31.744 17.376 60.864 43.296 72.448l118.496 53.024c30.944 13.856 52.64 43.2 59.616 77.92 20.8-8.896 43.168-14.016 66.624-14.016s45.824 5.12 66.624 14.016c6.944-34.752 28.672-64.096 59.584-77.92l11.264-5.056c2.112-0.96 4.352-1.408 6.528-1.408 6.112 0 11.968 3.52 14.624 9.44 3.616 8.064 0 17.536-8.032 21.152l-11.264 5.056c-23.904 10.688-39.904 36.48-42.304 65.312 56.672 38.56 94.944 109.536 94.944 190.784zM384 485.344c-88.224 0-160 84.96-160 189.344s71.776 189.312 160 189.312 160-84.928 160-189.312v-0.032c0-104.416-71.776-189.312-160-189.312zM887.168 222.304l-256 128c-4.928 2.464-10.88 2.208-15.552-0.704-4.736-2.912-7.616-8.064-7.616-13.6v-256c0-5.536 2.88-10.688 7.584-13.6 2.56-1.6 5.472-2.4 8.416-2.4 2.432 0 4.896 0.576 7.168 1.696l256 128c5.408 2.72 8.832 8.256 8.832 14.304s-3.424 11.584-8.832 14.304zM640 105.888v204.224l204.224-102.112-204.224-102.112z" />
<glyph unicode="&#xe936;" glyph-name="user-pointer" d="M576 674.688c0 122.016-86.112 221.312-192 221.312s-192-99.296-192-221.344c0-81.248 38.272-152.192 95.040-190.688-2.432-28.832-18.432-54.624-42.304-65.312l-118.496-53.024c-37.824-16.96-62.24-56.864-62.24-101.696v-55.936c0-8.832 7.168-16 16-16s16 7.168 16 16v55.936c0 31.744 17.376 60.864 43.296 72.448l118.496 53.024c30.944 13.856 52.64 43.2 59.616 77.92 20.8-8.896 43.168-14.016 66.624-14.016s45.824 5.12 66.624 14.016c6.944-34.752 28.672-64.096 59.584-77.92l11.264-5.056c2.112-0.96 4.352-1.408 6.528-1.408 6.112 0 11.968 3.52 14.624 9.44 3.616 8.064 0 17.536-8.032 21.152l-11.264 5.056c-23.904 10.688-39.904 36.48-42.304 65.312 56.672 38.56 94.944 109.536 94.944 190.784zM384 485.344c-88.224 0-160 84.96-160 189.344s71.776 189.312 160 189.312 160-84.928 160-189.312v-0.032c0-104.416-71.776-189.312-160-189.312zM858.24 220.288l-191.872 160c-4.736 3.968-11.424 4.832-17.024 2.208-5.632-2.624-9.216-8.288-9.216-14.496v-240c0-6.464 3.904-12.32 9.888-14.784 1.984-0.832 4.064-1.216 6.112-1.216 4.16 0 8.256 1.632 11.328 4.704l61.088 61.216 69.376-138.848c3.52-7.008 10.592-11.072 17.92-11.072 3.040 0 6.048 0.672 8.928 2.112 9.888 4.928 13.888 16.96 8.96 26.816l-67.488 135.072h81.76c6.752 0 12.736 4.224 15.040 10.56s0.352 13.408-4.8 17.728z" />
<glyph unicode="&#xe937;" glyph-name="table-arrow-down" d="M928 768h-832c-17.673 0-32-14.327-32-32v0-544c0-17.673 14.327-32 32-32v0h400c8.837 0 16 7.163 16 16s-7.163 16-16 16v0h-176v160h176c8.837 0 16 7.163 16 16s-7.163 16-16 16v0h-176v160h288v-80c0-8.837 7.163-16 16-16s16 7.163 16 16v0 80h288v-80c0-8.837 7.163-16 16-16s16 7.163 16 16v0 272c0 17.673-14.327 32-32 32v0zM288 192h-192v160h192zM288 384h-192v160h192zM288 576h-192v160h192zM608 576h-288v160h288zM928 576h-288v160h288zM868.672 187.328l-100.672-100.704v281.376c0 8.837-7.163 16-16 16s-16-7.163-16-16v0-281.376l-100.672 100.704c-2.899 2.899-6.904 4.692-11.328 4.692-8.848 0-16.020-7.172-16.020-16.020 0-4.424 1.793-8.429 4.692-11.328l128-128c2.897-2.904 6.903-4.701 11.328-4.701s8.431 1.797 11.328 4.7v0l128 128c2.899 2.899 4.692 6.904 4.692 11.328 0 8.848-7.172 16.020-16.020 16.020-4.424 0-8.429-1.793-11.328-4.692v0z" />
<glyph unicode="&#xe938;" glyph-name="table-arrow-up" d="M928 768h-832c-17.673 0-32-14.327-32-32v0-544c0-17.673 14.327-32 32-32v0h400c8.837 0 16 7.163 16 16s-7.163 16-16 16v0h-176v160h176c8.837 0 16 7.163 16 16s-7.163 16-16 16v0h-176v160h288v-80c0-8.837 7.163-16 16-16s16 7.163 16 16v0 80h288v-80c0-8.837 7.163-16 16-16s16 7.163 16 16v0 272c0 17.673-14.327 32-32 32v0zM288 192h-192v160h192zM288 384h-192v160h192zM288 576h-192v160h192zM608 576h-288v160h288zM928 576h-288v160h288zM763.328 379.328c-2.897 2.904-6.903 4.701-11.328 4.701s-8.431-1.797-11.328-4.7v0l-128-128c-2.899-2.899-4.692-6.904-4.692-11.328 0-8.848 7.172-16.020 16.020-16.020 4.424 0 8.429 1.793 11.328 4.692l100.672 100.704v-281.376c0-8.837 7.163-16 16-16s16 7.163 16 16v0 281.376l100.672-100.704c2.899-2.899 6.904-4.692 11.328-4.692 8.848 0 16.020 7.172 16.020 16.020 0 4.424-1.793 8.429-4.692 11.328v0z" />
<glyph unicode="&#xe939;" glyph-name="table-ban" d="M928 768h-832c-17.673 0-32-14.327-32-32v0-544c0-17.673 14.327-32 32-32v0h400c8.837 0 16 7.163 16 16s-7.163 16-16 16v0h-176v160h176c8.837 0 16 7.163 16 16s-7.163 16-16 16v0h-176v160h288v-80c0-8.837 7.163-16 16-16s16 7.163 16 16v0 80h288v-80c0-8.837 7.163-16 16-16s16 7.163 16 16v0 272c0 17.673-14.327 32-32 32v0zM288 192h-192v160h192zM288 384h-192v160h192zM288 576h-192v160h192zM608 576h-288v160h288zM928 576h-288v160h288zM876.448 332.448l-0.448 0.288c-31.418 29.6-73.872 47.791-120.575 47.791-97.202 0-176-78.798-176-176 0-46.695 18.185-89.143 47.858-120.648l-0.083 0.089 0.288-0.416 0.448-0.288c31.49-29.937 74.179-48.352 121.169-48.352 97.202 0 176 78.798 176 176 0 46.966-18.397 89.636-48.377 121.196l0.072-0.076zM608 208c0.091 79.492 64.508 143.909 143.991 144h0.009c34.025-0.154 65.206-12.204 89.629-32.201l-0.253 0.201-201.376-201.376c-19.796 24.17-31.846 55.351-32 89.342v0.034zM752 64c-34.025 0.154-65.206 12.204-89.629 32.201l0.253-0.201 201.376 201.376c19.796-24.17 31.846-55.351 32-89.342v-0.034c-0.091-79.492-64.508-143.909-143.991-144h-0.009z" />
<glyph unicode="&#xe93a;" glyph-name="table-chart" d="M928 768h-832c-17.673 0-32-14.327-32-32v0-544c0-17.673 14.327-32 32-32v0h400c8.837 0 16 7.163 16 16s-7.163 16-16 16v0h-176v160h176c8.837 0 16 7.163 16 16s-7.163 16-16 16v0h-176v160h288v-80c0-8.837 7.163-16 16-16s16 7.163 16 16v0 80h288v-80c0-8.837 7.163-16 16-16s16 7.163 16 16v0 272c0 17.673-14.327 32-32 32v0zM288 192h-192v160h192zM288 384h-192v160h192zM288 576h-192v160h192zM608 576h-288v160h288zM928 576h-288v160h288zM880 288h-80v80c0 8.837-7.163 16-16 16v0h-96c-8.837 0-16-7.163-16-16v0-144h-80c-8.837 0-16-7.163-16-16v0-160c0-8.837 7.163-16 16-16v0h288c8.837 0 16 7.163 16 16v0 224c0 8.837-7.163 16-16 16v0zM672 64h-64v128h64zM768 64h-64v288h64zM864 64h-64v192h64z" />
<glyph unicode="&#xe93b;" glyph-name="table-check" d="M928 768h-832c-17.673 0-32-14.327-32-32v0-544c0-17.673 14.327-32 32-32v0h400c8.837 0 16 7.163 16 16s-7.163 16-16 16v0h-176v160h176c8.837 0 16 7.163 16 16s-7.163 16-16 16v0h-176v160h288v-80c0-8.837 7.163-16 16-16s16 7.163 16 16v0 80h288v-80c0-8.837 7.163-16 16-16s16 7.163 16 16v0 272c0 17.673-14.327 32-32 32v0zM288 192h-192v160h192zM288 384h-192v160h192zM288 576h-192v160h192zM608 576h-288v160h288zM928 576h-288v160h288zM884.672 315.328l-180.672-180.704-84.672 84.704c-2.899 2.899-6.904 4.692-11.328 4.692-8.848 0-16.020-7.172-16.020-16.020 0-4.424 1.793-8.429 4.692-11.328l96-96c2.897-2.904 6.903-4.701 11.328-4.701s8.431 1.797 11.328 4.7v0l192 192c2.899 2.899 4.692 6.904 4.692 11.328 0 8.848-7.172 16.020-16.020 16.020-4.424 0-8.429-1.793-11.328-4.692v0z" />
<glyph unicode="&#xe93c;" glyph-name="table-clock" d="M928 768h-832c-17.673 0-32-14.327-32-32v0-544c0-17.673 14.327-32 32-32v0h400c8.837 0 16 7.163 16 16s-7.163 16-16 16v0h-176v160h176c8.837 0 16 7.163 16 16s-7.163 16-16 16v0h-176v160h288v-80c0-8.837 7.163-16 16-16s16 7.163 16 16v0 80h288v-80c0-8.837 7.163-16 16-16s16 7.163 16 16v0 272c0 17.673-14.327 32-32 32v0zM288 192h-192v160h192zM288 384h-192v160h192zM288 576h-192v160h192zM608 576h-288v160h288zM928 576h-288v160h288zM752 384c-97.202 0-176-78.798-176-176s78.798-176 176-176c97.202 0 176 78.798 176 176v0c-0.109 97.158-78.842 175.891-175.99 176h-0.010zM752 64c-79.529 0-144 64.471-144 144s64.471 144 144 144c79.529 0 144-64.471 144-144v0c-0.091-79.492-64.508-143.909-143.991-144h-0.009zM768 214.624v89.376c0 8.837-7.163 16-16 16s-16-7.163-16-16v0-96c0-0.008 0-0.019 0-0.029 0-4.411 1.785-8.405 4.672-11.3v0l64-64c2.899-2.899 6.904-4.692 11.328-4.692 8.848 0 16.020 7.172 16.020 16.020 0 4.424-1.793 8.429-4.692 11.328v0z" />
<glyph unicode="&#xe93d;" glyph-name="table-cursor" d="M928 768h-832c-17.673 0-32-14.327-32-32v0-544c0-17.673 14.327-32 32-32v0h400c8.837 0 16 7.163 16 16s-7.163 16-16 16v0h-176v160h176c8.837 0 16 7.163 16 16s-7.163 16-16 16v0h-176v160h288v-80c0-8.837 7.163-16 16-16s16 7.163 16 16v0 80h288v-80c0-8.837 7.163-16 16-16s16 7.163 16 16v0 272c0 17.673-14.327 32-32 32v0zM288 192h-192v160h192zM288 384h-192v160h192zM288 576h-192v160h192zM608 576h-288v160h288zM928 576h-288v160h288zM816 352h32c8.837 0 16 7.163 16 16s-7.163 16-16 16v0h-32c-26.083 0-49.25-12.482-63.854-31.799l-0.146-0.201c-14.75 19.518-37.917 32-64 32v0h-32c-8.837 0-16-7.163-16-16s7.163-16 16-16v0h32c26.51 0 48-21.49 48-48v0-80h-48c-8.837 0-16-7.163-16-16s7.163-16 16-16v0h48v-80c0-26.51-21.49-48-48-48v0h-32c-8.837 0-16-7.163-16-16s7.163-16 16-16v0h32c26.083 0 49.25 12.482 63.854 31.799l0.146 0.201c14.75-19.518 37.917-32 64-32v0h32c8.837 0 16 7.163 16 16s-7.163 16-16 16v0h-32c-26.51 0-48 21.49-48 48v0 80h48c8.837 0 16 7.163 16 16s-7.163 16-16 16v0h-48v80c0 26.51 21.49 48 48 48v0z" />
<glyph unicode="&#xe93e;" glyph-name="table-edit" d="M928 768h-832c-17.673 0-32-14.327-32-32v0-544c0-17.673 14.327-32 32-32v0h400c8.837 0 16 7.163 16 16s-7.163 16-16 16v0h-176v160h176c8.837 0 16 7.163 16 16s-7.163 16-16 16v0h-176v160h288v-80c0-8.837 7.163-16 16-16s16 7.163 16 16v0 80h288v-80c0-8.837 7.163-16 16-16s16 7.163 16 16v0 272c0 17.673-14.327 32-32 32v0zM288 192h-192v160h192zM288 384h-192v160h192zM288 576h-192v160h192zM608 576h-288v160h288zM928 576h-288v160h288zM866.688 384c-0.038 0-0.083 0-0.128 0-16.845 0-32.090-6.851-43.102-17.918l-0.002-0.003-208-208c-3.404-3.425-6.046-7.613-7.644-12.285l-0.068-0.227-30.816-92.416c-0.54-1.536-0.852-3.308-0.852-5.152 0-8.81 7.12-15.957 15.92-16h0.004c0.020 0 0.045 0 0.069 0 1.786 0 3.5 0.305 5.095 0.865l-0.108-0.033 92.352 30.784c4.924 1.67 9.134 4.323 12.578 7.746l207.998 207.998c11.127 11.023 18.016 26.307 18.016 43.199 0 0.045 0 0.091 0 0.136v-0.007 0.192c-0.055 33.767-27.441 61.12-61.216 61.12-0.034 0-0.068 0-0.101 0h0.005zM896 322.688c0-0.016 0-0.036 0-0.055 0-8.032-3.266-15.301-8.543-20.552l-208.001-208.001-62.048-20.672 20.704 62.048 208 208c5.289 5.268 12.584 8.526 20.64 8.526 16.102 0 29.164-13.011 29.248-29.094v-0.008z" />
<glyph unicode="&#xe93f;" glyph-name="table-heart" d="M928 768h-832c-17.673 0-32-14.327-32-32v0-544c0-17.673 14.327-32 32-32v0h400c8.837 0 16 7.163 16 16s-7.163 16-16 16v0h-176v160h176c8.837 0 16 7.163 16 16s-7.163 16-16 16v0h-176v160h288v-80c0-8.837 7.163-16 16-16s16 7.163 16 16v0 80h288v-80c0-8.837 7.163-16 16-16s16 7.163 16 16v0 272c0 17.673-14.327 32-32 32v0zM288 192h-192v160h192zM288 384h-192v160h192zM288 576h-192v160h192zM608 576h-288v160h288zM928 576h-288v160h288zM764.8 323.872l-12.096-12.096-12.096 12.096c-17.376 17.384-41.384 28.136-67.904 28.136-53.024 0-96.008-42.984-96.008-96.008 0-26.504 10.74-50.5 28.104-67.872l136.576-136.576c2.895-2.894 6.895-4.685 11.312-4.685s8.417 1.79 11.312 4.685l136.608 136.576c17.365 17.372 28.104 41.368 28.104 67.872 0 53.024-42.984 96.008-96.008 96.008-26.52 0-50.528-10.753-67.904-28.136v0zM877.984 210.752l-125.28-125.28-125.504 125.28c-11.575 11.583-18.733 27.579-18.733 45.248 0 35.353 28.66 64.013 64.013 64.013 17.685 0 33.694-7.171 45.28-18.765l23.392-23.424c2.895-2.894 6.895-4.685 11.312-4.685s8.417 1.79 11.312 4.685l23.424 23.424c11.586 11.594 27.595 18.765 45.28 18.765 35.353 0 64.013-28.66 64.013-64.013 0-17.669-7.158-33.665-18.733-45.248v0z" />
<glyph unicode="&#xe940;" glyph-name="table-lock" d="M928 768h-832c-17.673 0-32-14.327-32-32v0-544c0-17.673 14.327-32 32-32v0h400c8.837 0 16 7.163 16 16s-7.163 16-16 16v0h-176v160h176c8.837 0 16 7.163 16 16s-7.163 16-16 16v0h-176v160h288v-80c0-8.837 7.163-16 16-16s16 7.163 16 16v0 80h288v-80c0-8.837 7.163-16 16-16s16 7.163 16 16v0 272c0 17.673-14.327 32-32 32v0zM288 192h-192v160h192zM288 384h-192v160h192zM288 576h-192v160h192zM608 576h-288v160h288zM928 576h-288v160h288zM896 224h-32v64c0 53.019-42.981 96-96 96s-96-42.981-96-96v0-64h-32c-17.673 0-32-14.327-32-32v0-160c0-17.673 14.327-32 32-32v0h256c17.673 0 32 14.327 32 32v0 160c0 17.673-14.327 32-32 32v0zM704 288c0 35.346 28.654 64 64 64s64-28.654 64-64v0-64h-128zM896 192v-160h-256v160z" />
<glyph unicode="&#xe941;" glyph-name="table-play" d="M928 768h-832c-17.673 0-32-14.327-32-32v0-544c0-17.673 14.327-32 32-32v0h400c8.837 0 16 7.163 16 16s-7.163 16-16 16v0h-176v160h176c8.837 0 16 7.163 16 16s-7.163 16-16 16v0h-176v160h288v-80c0-8.837 7.163-16 16-16s16 7.163 16 16v0 80h288v-80c0-8.837 7.163-16 16-16s16 7.163 16 16v0 272c0 17.673-14.327 32-32 32v0zM288 192h-192v160h192zM288 384h-192v160h192zM288 576h-192v160h192zM608 576h-288v160h288zM928 576h-288v160h288zM887.168 222.304l-256 128c-2.088 1.069-4.555 1.695-7.168 1.695-8.836 0-16-7.163-16-15.999v0-256c0.003-5.718 3.004-10.734 7.517-13.561l0.067-0.039c2.392-1.504 5.299-2.397 8.415-2.4h0.001c2.613 0.010 5.078 0.636 7.261 1.739l-0.093-0.043 256 128c5.278 2.688 8.831 8.081 8.831 14.304s-3.553 11.616-8.74 14.262l-0.091 0.042zM640 105.888v204.224l204.224-102.112z" />
<glyph unicode="&#xe942;" glyph-name="table-plus" d="M928 768h-832c-17.673 0-32-14.327-32-32v0-544c0-17.673 14.327-32 32-32v0h400c8.837 0 16 7.163 16 16s-7.163 16-16 16v0h-176v160h176c8.837 0 16 7.163 16 16s-7.163 16-16 16v0h-176v160h288v-80c0-8.837 7.163-16 16-16s16 7.163 16 16v0 80h288v-80c0-8.837 7.163-16 16-16s16 7.163 16 16v0 272c0 17.673-14.327 32-32 32v0zM288 192h-192v160h192zM288 384h-192v160h192zM288 576h-192v160h192zM608 576h-288v160h288zM928 576h-288v160h288zM912 192h-112v112c0 8.837-7.163 16-16 16s-16-7.163-16-16v0-112h-112c-8.837 0-16-7.163-16-16s7.163-16 16-16v0h112v-112c0-8.837 7.163-16 16-16s16 7.163 16 16v0 112h112c8.837 0 16 7.163 16 16s-7.163 16-16 16v0z" />
<glyph unicode="&#xe943;" glyph-name="headset" d="M912 320h-16l-0.192 160c0 211.744-172.256 384-384 384s-384-172.256-384-384l0.192-160h-16c-8.832 0-16-7.168-16-16s7.168-16 16-16h16v-80c0-8.832 7.168-16 16-16h48v-80c0-44.096 35.872-80 80-80h144v-16c0-8.832 7.168-16 16-16s16 7.168 16 16v64c0 8.832-7.168 16-16 16s-16-7.168-16-16v-16h-144c-26.464 0-48 21.536-48 48v80h16c26.464 0 48 21.536 48 48v128c0 26.464-21.536 48-48 48h-80.192v64c0 194.080 157.92 352 352 352s352-157.92 352-352v-64h-79.808c-26.464 0-48-21.536-48-48v-128c0-26.464 21.536-48 48-48h96c8.832 0 16 7.168 16 16v80h16c8.832 0 16 7.168 16 16s-7.168 16-16 16zM160 384h80c8.8 0 16-7.168 16-16v-128c0-8.832-7.2-16-16-16h-80v160zM864 224h-80c-8.8 0-16 7.168-16 16v128c0 8.832 7.2 16 16 16h80v-160z" />
<glyph unicode="&#xe944;" glyph-name="tools" d="M871.424 207.2l-350.464 350.464c-11.264 11.264-15.904 28.256-12.512 45.568 5.44 27.968 4.64 56.544-2.432 84.832-16.896 68.128-71.744 122.464-139.744 138.496-40.256 9.568-81.472 6.304-118.976-9.088-4.96-2.016-8.576-6.4-9.632-11.648s0.608-10.688 4.384-14.464l92.032-92.032c6.24-6.24 6.24-16.384 0-22.624l-50.752-50.752c-6.24-6.24-16.384-6.24-22.624 0l-92.032 92.032c-3.84 3.776-9.12 5.504-14.496 4.352-5.248-1.056-9.6-4.64-11.648-9.632-15.424-37.664-18.56-78.88-9.024-119.232 16.064-68 70.496-122.816 138.656-139.584 28.384-6.976 56.8-7.776 84.64-2.336 17.44 3.392 34.112-1.12 45.568-12.544l350.464-350.464c15.84-15.84 36.896-24.544 59.328-24.544 46.208 0 83.84 37.632 83.84 83.904 0 22.080-8.928 43.68-24.576 59.296zM812.096 96c-13.856 0-26.88 5.408-36.672 15.2l-350.464 350.464c-14.912 14.912-35.424 22.976-57.152 22.976-5.696 0-11.424-0.544-17.184-1.696-23.2-4.512-46.976-3.808-70.816 2.016-56.64 13.984-101.856 59.424-115.2 115.904-6.016 25.472-6.016 51.328-0.128 76l73.568-73.568c18.688-18.688 49.184-18.688 67.872 0l50.752 50.752c18.72 18.72 18.72 49.152 0 67.872l-73.536 73.568c24.608 5.888 50.368 5.888 75.84-0.064 56.448-13.312 101.984-58.464 116-115.104 5.952-23.776 6.624-47.648 2.080-70.976-5.472-27.744 2.496-55.552 21.28-74.336l350.464-350.464c9.664-9.632 15.2-23.008 15.2-36.704 0-28.576-23.296-51.84-51.904-51.84zM484.704 283.296l-172.064-172.096c-9.792-9.792-22.848-15.2-36.736-15.2-28.608 0-51.84 23.296-51.84 51.904 0 13.856 5.408 26.88 15.2 36.672l172.096 172.096c6.24 6.24 6.24 16.384 0 22.624s-16.384 6.24-22.624 0l-172.096-172.096c-15.84-15.84-24.576-36.896-24.576-59.328 0-46.208 37.632-83.84 83.904-83.84 22.368 0 43.424 8.704 59.296 24.576l172.096 172.096c6.24 6.24 6.24 16.384 0 22.624s-16.384 6.208-22.656-0.032zM640 496c4.096 0 8.192 1.568 11.328 4.672l136.672 136.672c3.648 3.648 7.84 6.688 12.48 8.992l54.72 27.328c2.72 1.376 4.992 3.456 6.56 6.080l24 40c3.776 6.272 2.784 14.336-2.4 19.52l-16 16c-5.216 5.216-13.344 6.144-19.52 2.4l-40-24c-2.624-1.568-4.704-3.84-6.080-6.56l-27.328-54.688c-2.336-4.672-5.376-8.832-9.024-12.512l-136.672-136.672c-6.24-6.24-6.24-16.384 0-22.624 3.072-3.040 7.168-4.608 11.264-4.608zM800 176c0-8.837-7.163-16-16-16s-16 7.163-16 16c0 8.837 7.163 16 16 16s16-7.163 16-16z" />
<glyph unicode="&#xe945;" glyph-name="table-pointer" d="M666.368 380.288c-2.774 2.371-6.402 3.814-10.368 3.814-8.837 0-16-7.163-16-16 0-0.036 0-0.072 0-0.108v0.006-240c0.020-8.821 7.176-15.965 16-15.965 4.41 0 8.402 1.784 11.296 4.669v0l61.12 61.216 69.376-138.848c3.353-6.614 10.1-11.069 17.888-11.072v0c0.017 0 0.038 0 0.058 0 3.235 0 6.288 0.781 8.98 2.164l-0.111-0.052c6.62 3.362 11.076 10.12 11.076 17.919 0 3.242-0.77 6.303-2.137 9.012l0.053-0.115-67.36 135.072h81.76c8.833 0.004 15.993 7.166 15.993 16 0 4.926-2.226 9.333-5.728 12.268l-0.025 0.020zM928 768h-832c-17.673 0-32-14.327-32-32v0-544c0-17.673 14.327-32 32-32v0h400c8.837 0 16 7.163 16 16s-7.163 16-16 16v0h-176v160h176c8.837 0 16 7.163 16 16s-7.163 16-16 16v0h-176v160h288v-80c0-8.837 7.163-16 16-16s16 7.163 16 16v0 80h288v-80c0-8.837 7.163-16 16-16s16 7.163 16 16v0 272c0 17.673-14.327 32-32 32v0zM288 192h-192v160h192zM288 384h-192v160h192zM288 576h-192v160h192zM608 576h-288v160h288zM928 576h-288v160h288z" />
<glyph unicode="&#xe946;" glyph-name="table-search" d="M804.704 177.92c17.025 21.705 27.302 49.409 27.302 79.514 0 71.488-57.952 129.44-129.44 129.44s-129.44-57.952-129.44-129.44c0-71.488 57.952-129.44 129.44-129.44 30.105 0 57.809 10.277 79.796 27.515l-0.282-0.213 118.592-118.624c2.899-2.899 6.904-4.692 11.328-4.692 8.848 0 16.020 7.172 16.020 16.020 0 4.424-1.793 8.429-4.692 11.328v0zM704 160c-53.019 0-96 42.981-96 96s42.981 96 96 96c53.019 0 96-42.981 96-96v0c0-53.019-42.981-96-96-96v0zM928 768h-832c-17.673 0-32-14.327-32-32v0-544c0-17.673 14.327-32 32-32v0h400c8.837 0 16 7.163 16 16s-7.163 16-16 16v0h-176v160h176c8.837 0 16 7.163 16 16s-7.163 16-16 16v0h-176v160h288v-80c0-8.837 7.163-16 16-16s16 7.163 16 16v0 80h288v-80c0-8.837 7.163-16 16-16s16 7.163 16 16v0 272c0 17.673-14.327 32-32 32v0zM288 192h-192v160h192zM288 384h-192v160h192zM288 576h-192v160h192zM608 576h-288v160h288zM928 576h-288v160h288z" />
<glyph unicode="&#xe947;" glyph-name="table-user" d="M928 768h-832c-17.673 0-32-14.327-32-32v0-544c0-17.673 14.327-32 32-32v0h400c8.837 0 16 7.163 16 16s-7.163 16-16 16v0h-176v160h176c8.837 0 16 7.163 16 16s-7.163 16-16 16v0h-176v160h288v-80c0-8.837 7.163-16 16-16s16 7.163 16 16v0 80h288v-80c0-8.837 7.163-16 16-16s16 7.163 16 16v0 272c0 17.673-14.327 32-32 32v0zM288 192h-192v160h192zM288 384h-192v160h192zM288 576h-192v160h192zM608 576h-288v160h288zM928 576h-288v160h288zM899.744 171.552l-55.392 37.28c12.299 17.721 19.648 39.684 19.648 63.365 0 61.856-50.144 112-112 112s-112-50.144-112-112c0-23.68 7.349-45.644 19.891-63.736l-0.243 0.371-55.392-37.312c-17.143-11.66-28.256-31.076-28.256-53.088 0-0.011 0-0.022 0-0.033v0.002-70.4c0-8.837 7.163-16 16-16s16 7.163 16 16v0 70.4c0 0.008 0 0.017 0 0.027 0 10.999 5.549 20.702 14.001 26.462l0.111 0.071 59.904 40.288c18.827-15.73 43.29-25.282 69.984-25.282s51.157 9.551 70.158 25.423l-0.174-0.141 59.904-40.288c8.563-5.831 14.112-15.534 14.112-26.533 0-0.009 0-0.019 0-0.028v0.001-70.4c0-8.837 7.163-16 16-16s16 7.163 16 16v0 70.4c0 0.019 0 0.041 0 0.064 0 22.012-11.113 41.429-28.034 52.946l-0.222 0.143zM832 272c0-44.183-35.817-80-80-80s-80 35.817-80 80c0 44.183 35.817 80 80 80v0c44.183 0 80-35.817 80-80v0z" />
<glyph unicode="&#xe948;" glyph-name="table-wrench" d="M942.752 333.12c-3.17 1.356-6.859 2.144-10.733 2.144-7.719 0-14.707-3.131-19.763-8.192v0l-51.2-51.2-41.216 41.408 50.88 50.72c5.188 5.086 8.404 12.168 8.404 20 0 15.464-12.536 28-28 28-0.041 0-0.082 0-0.123 0h-35.002c-61.856 0-112-50.144-112-112v0-37.344c0-0.040 0-0.088 0-0.136 0-13.204-5.37-25.153-14.046-33.782l-0.002-0.002-128-128.16c-9.827-10.836-15.842-25.287-15.842-41.142 0-33.879 27.465-61.344 61.344-61.344 15.983 0 30.538 6.112 41.455 16.127l-0.045-0.041 128 128c8.699 8.52 20.611 13.788 33.753 13.824h37.543c61.787 0.091 111.84 50.2 111.84 112 0 0 0 0 0 0v0 35.2c0 0.020 0 0.043 0 0.067 0 11.584-7.034 21.525-17.065 25.784l-0.183 0.069zM928 272c0-44.183-35.817-80-80-80v0h-37.376c-22.106-0.073-42.109-9.019-56.644-23.46l-127.996-127.996c-5.266-5.067-12.435-8.187-20.334-8.187-16.206 0-29.344 13.138-29.344 29.344 0 7.843 3.077 14.967 8.089 20.231l-0.011-0.012 128 128c14.585 14.427 23.616 34.442 23.616 56.566 0 0.037 0 0.075 0 0.112v-0.006 37.408c0 44.183 35.817 80 80 80v0h25.6l-44.096-44.032c-5.789-5.791-9.369-13.789-9.369-22.624s3.58-16.833 9.369-22.624v0l41.248-41.6c5.765-5.811 13.754-9.408 22.583-9.408 0.014 0 0.029 0 0.043 0h-0.002c0.032 0 0.070 0 0.107 0 8.792 0 16.747 3.585 22.482 9.374l44.034 44.514zM928 768h-832c-17.673 0-32-14.327-32-32v0-544c0-17.673 14.327-32 32-32v0h400c8.837 0 16 7.163 16 16s-7.163 16-16 16v0h-176v160h176c8.837 0 16 7.163 16 16s-7.163 16-16 16v0h-176v160h288v-80c0-8.837 7.163-16 16-16s16 7.163 16 16v0 80h288v-80c0-8.837 7.163-16 16-16s16 7.163 16 16v0 272c0 17.673-14.327 32-32 32v0zM288 192h-192v160h192zM288 384h-192v160h192zM288 576h-192v160h192zM608 576h-288v160h288zM928 576h-288v160h288z" />
<glyph unicode="&#xe949;" glyph-name="table-x" d="M928 768h-832c-17.673 0-32-14.327-32-32v0-544c0-17.673 14.327-32 32-32v0h400c8.837 0 16 7.163 16 16s-7.163 16-16 16v0h-176v160h176c8.837 0 16 7.163 16 16s-7.163 16-16 16v0h-176v160h288v-80c0-8.837 7.163-16 16-16s16 7.163 16 16v0 80h288v-80c0-8.837 7.163-16 16-16s16 7.163 16 16v0 272c0 17.673-14.327 32-32 32v0zM288 192h-192v160h192zM288 384h-192v160h192zM288 576h-192v160h192zM608 576h-288v160h288zM928 576h-288v160h288zM875.328 331.328c-2.897 2.904-6.903 4.701-11.328 4.701s-8.431-1.797-11.328-4.7v0l-100.672-100.672-100.672 100.672c-2.898 2.902-6.903 4.697-11.328 4.697-8.841 0-16.009-7.167-16.009-16.009 0-4.417 1.789-8.416 4.681-11.312v0l100.704-100.704-100.704-100.704c-2.892-2.896-4.681-6.895-4.681-11.312 0-8.841 7.167-16.009 16.009-16.009 4.425 0 8.43 1.795 11.328 4.697l100.672 100.736 100.672-100.704c2.898-2.902 6.903-4.697 11.328-4.697 8.841 0 16.009 7.167 16.009 16.009 0 4.417-1.789 8.416-4.681 11.312v0l-100.704 100.672 100.704 100.672c2.904 2.897 4.701 6.903 4.701 11.328s-1.797 8.431-4.7 11.328v0z" />
<glyph unicode="&#xe94a;" glyph-name="folder-arrow-down" d="M928 736h-494.848c-0.057 0-0.124 0-0.191 0-17.622 0-33.57 7.169-45.086 18.749l-49.123 49.123c-17.276 17.375-41.196 28.128-67.627 28.128-0.097 0-0.195 0-0.292 0h-174.833c-17.673 0-32-14.327-32-32v0-640c0-17.673 14.327-32 32-32v0h368c8.837 0 16 7.163 16 16s-7.163 16-16 16v0h-368v640h174.848c0.057 0 0.124 0 0.191 0 17.622 0 33.57-7.169 45.086-18.749l49.123-49.123c17.276-17.375 41.196-28.128 67.627-28.128 0.097 0 0.195 0 0.292 0h494.833v-208c0-8.837 7.163-16 16-16s16 7.163 16 16v0 208c0 17.673-14.327 32-32 32v0zM880 640h-736c-8.837 0-16-7.163-16-16s7.163-16 16-16v0h736c8.837 0 16 7.163 16 16s-7.163 16-16 16v0zM880 192c-0.008 0-0.019 0-0.029 0-4.411 0-8.405-1.785-11.3-4.672v0l-100.672-100.704v281.376c0 8.837-7.163 16-16 16s-16-7.163-16-16v0-281.376l-100.672 100.704c-2.899 2.899-6.904 4.692-11.328 4.692-8.848 0-16.020-7.172-16.020-16.020 0-4.424 1.793-8.429 4.692-11.328l128-128c2.897-2.904 6.903-4.701 11.328-4.701s8.431 1.797 11.328 4.7v0l128 128c2.904 2.897 4.701 6.903 4.701 11.328 0 8.837-7.163 16-16 16-0.010 0-0.020 0-0.030 0h0.002z" />
<glyph unicode="&#xe94b;" glyph-name="folder-arrow-up" d="M928 736h-494.848c-0.057 0-0.124 0-0.191 0-17.622 0-33.57 7.169-45.086 18.749l-49.123 49.123c-17.276 17.375-41.196 28.128-67.627 28.128-0.097 0-0.195 0-0.292 0h-174.833c-17.673 0-32-14.327-32-32v0-640c0-17.673 14.327-32 32-32v0h368c8.837 0 16 7.163 16 16s-7.163 16-16 16v0h-368v640h174.848c0.057 0 0.124 0 0.191 0 17.622 0 33.57-7.169 45.086-18.749l49.123-49.123c17.276-17.375 41.196-28.128 67.627-28.128 0.097 0 0.195 0 0.292 0h494.833v-208c0-8.837 7.163-16 16-16s16 7.163 16 16v0 208c0 17.673-14.327 32-32 32v0zM880 640h-736c-8.837 0-16-7.163-16-16s7.163-16 16-16v0h736c8.837 0 16 7.163 16 16s-7.163 16-16 16v0zM763.328 379.328c-2.897 2.904-6.903 4.701-11.328 4.701s-8.431-1.797-11.328-4.7v0l-128-128c-2.899-2.899-4.692-6.904-4.692-11.328 0-8.848 7.172-16.020 16.020-16.020 4.424 0 8.429 1.793 11.328 4.692l100.672 100.704v-281.376c0-8.837 7.163-16 16-16s16 7.163 16 16v0 281.376l100.672-100.704c2.899-2.899 6.904-4.692 11.328-4.692 8.848 0 16.020 7.172 16.020 16.020 0 4.424-1.793 8.429-4.692 11.328v0z" />
<glyph unicode="&#xe94c;" glyph-name="folder-ban" d="M928 736h-494.848c-16.992-0.064-33.312 6.688-45.28 18.752l-49.12 49.12c-17.952 18.080-42.432 28.192-67.904 28.128h-174.848c-17.664 0-32-14.336-32-32v-640c0-17.664 14.336-32 32-32h368c8.832 0 16 7.168 16 16s-7.168 16-16 16h-368v640h174.848c16.992 0.064 33.312-6.688 45.28-18.752l49.12-49.12c17.952-18.080 42.432-28.192 67.904-28.128h494.848v-208c0-8.832 7.168-16 16-16s16 7.168 16 16v208c0 17.664-14.336 32-32 32zM896 624c0 8.832-7.168 16-16 16h-736c-8.832 0-16-7.168-16-16s7.168-16 16-16h736c8.832 0 16 7.168 16 16zM876.448 332.448c-0.128 0.128-0.288 0.16-0.448 0.288-31.84 31.648-75.68 51.264-124 51.264-97.024 0-176-78.944-176-176 0-48.352 19.616-92.192 51.264-124.032 0.128-0.128 0.16-0.32 0.288-0.416 0.128-0.128 0.288-0.16 0.448-0.288 31.84-31.648 75.68-51.264 124-51.264 97.024 0 176 78.944 176 176 0 48.352-19.616 92.192-51.264 124.032-0.128 0.128-0.16 0.288-0.288 0.416zM608 208c0 79.392 64.608 144 144 144 33.92 0 64.736-12.288 89.376-32l-201.376-201.376c-19.712 24.64-32 55.456-32 89.376zM752 64c-33.92 0-64.736 12.288-89.376 32l201.376 201.376c19.712-24.64 32-55.456 32-89.376 0-79.392-64.608-144-144-144z" />
<glyph unicode="&#xe94d;" glyph-name="folder-chart" d="M928 736h-494.848c-0.057 0-0.124 0-0.191 0-17.622 0-33.57 7.169-45.086 18.749l-49.123 49.123c-17.276 17.375-41.196 28.128-67.627 28.128-0.097 0-0.195 0-0.292 0h-174.833c-17.673 0-32-14.327-32-32v0-640c0-17.673 14.327-32 32-32v0h368c8.837 0 16 7.163 16 16s-7.163 16-16 16v0h-368v640h174.848c0.057 0 0.124 0 0.191 0 17.622 0 33.57-7.169 45.086-18.749l49.123-49.123c17.276-17.375 41.196-28.128 67.627-28.128 0.097 0 0.195 0 0.292 0h494.833v-208c0-8.837 7.163-16 16-16s16 7.163 16 16v0 208c0 17.673-14.327 32-32 32v0zM880 640h-736c-8.837 0-16-7.163-16-16s7.163-16 16-16v0h736c8.837 0 16 7.163 16 16s-7.163 16-16 16v0zM880 288h-80v80c0 8.837-7.163 16-16 16v0h-96c-8.837 0-16-7.163-16-16v0-144h-80c-8.837 0-16-7.163-16-16v0-160c0-8.837 7.163-16 16-16v0h288c8.837 0 16 7.163 16 16v0 224c0 8.837-7.163 16-16 16v0zM672 64h-64v128h64zM768 64h-64v288h64zM864 64h-64v192h64z" />
<glyph unicode="&#xe94e;" glyph-name="folder-check" d="M928 736h-494.848c-0.057 0-0.124 0-0.191 0-17.622 0-33.57 7.169-45.086 18.749l-49.123 49.123c-17.276 17.375-41.196 28.128-67.627 28.128-0.097 0-0.195 0-0.292 0h-174.833c-17.673 0-32-14.327-32-32v0-640c0-17.673 14.327-32 32-32v0h368c8.837 0 16 7.163 16 16s-7.163 16-16 16v0h-368v640h174.848c0.057 0 0.124 0 0.191 0 17.622 0 33.57-7.169 45.086-18.749l49.123-49.123c17.276-17.375 41.196-28.128 67.627-28.128 0.097 0 0.195 0 0.292 0h494.833v-208c0-8.837 7.163-16 16-16s16 7.163 16 16v0 208c0 17.673-14.327 32-32 32v0zM896 624c0 8.837-7.163 16-16 16v0h-736c-8.837 0-16-7.163-16-16s7.163-16 16-16v0h736c8.837 0 16 7.163 16 16v0zM884.672 315.328l-180.672-180.704-84.672 84.704c-2.899 2.899-6.904 4.692-11.328 4.692-8.848 0-16.020-7.172-16.020-16.020 0-4.424 1.793-8.429 4.692-11.328l96-96c2.897-2.904 6.903-4.701 11.328-4.701s8.431 1.797 11.328 4.7v0l192 192c2.899 2.899 4.692 6.904 4.692 11.328 0 8.848-7.172 16.020-16.020 16.020-4.424 0-8.429-1.793-11.328-4.692v0z" />
<glyph unicode="&#xe94f;" glyph-name="folder-clock" d="M928 736h-494.848c-0.057 0-0.124 0-0.191 0-17.622 0-33.57 7.169-45.086 18.749l-49.123 49.123c-17.276 17.375-41.196 28.128-67.627 28.128-0.097 0-0.195 0-0.292 0h-174.833c-17.673 0-32-14.327-32-32v0-640c0-17.673 14.327-32 32-32v0h368c8.837 0 16 7.163 16 16s-7.163 16-16 16v0h-368v640h174.848c0.057 0 0.124 0 0.191 0 17.622 0 33.57-7.169 45.086-18.749l49.123-49.123c17.276-17.375 41.196-28.128 67.627-28.128 0.097 0 0.195 0 0.292 0h494.833v-208c0-8.837 7.163-16 16-16s16 7.163 16 16v0 208c0 17.673-14.327 32-32 32v0zM896 624c0 8.837-7.163 16-16 16v0h-736c-8.837 0-16-7.163-16-16s7.163-16 16-16v0h736c8.837 0 16 7.163 16 16v0zM752 384c-97.202 0-176-78.798-176-176s78.798-176 176-176c97.202 0 176 78.798 176 176v0c-0.109 97.158-78.842 175.891-175.99 176h-0.010zM752 64c-79.529 0-144 64.471-144 144s64.471 144 144 144c79.529 0 144-64.471 144-144v0c-0.091-79.492-64.508-143.909-143.991-144h-0.009zM768 214.624v89.376c0 8.837-7.163 16-16 16s-16-7.163-16-16v0-96c0-0.008 0-0.019 0-0.029 0-4.411 1.785-8.405 4.672-11.3v0l64-64c2.899-2.899 6.904-4.692 11.328-4.692 8.848 0 16.020 7.172 16.020 16.020 0 4.424-1.793 8.429-4.692 11.328v0z" />
<glyph unicode="&#xe950;" glyph-name="folder-cursor" d="M928 736h-494.848c-0.057 0-0.124 0-0.191 0-17.622 0-33.57 7.169-45.086 18.749l-49.123 49.123c-17.276 17.375-41.196 28.128-67.627 28.128-0.097 0-0.195 0-0.292 0h-174.833c-17.673 0-32-14.327-32-32v0-640c0-17.673 14.327-32 32-32v0h368c8.837 0 16 7.163 16 16s-7.163 16-16 16v0h-368v640h174.848c0.057 0 0.124 0 0.191 0 17.622 0 33.57-7.169 45.086-18.749l49.123-49.123c17.276-17.375 41.196-28.128 67.627-28.128 0.097 0 0.195 0 0.292 0h494.833v-208c0-8.837 7.163-16 16-16s16 7.163 16 16v0 208c0 17.673-14.327 32-32 32v0zM880 640h-736c-8.837 0-16-7.163-16-16s7.163-16 16-16v0h736c8.837 0 16 7.163 16 16s-7.163 16-16 16v0zM816 352h32c8.837 0 16 7.163 16 16s-7.163 16-16 16v0h-32c-26.083 0-49.25-12.482-63.854-31.799l-0.146-0.201c-14.75 19.518-37.917 32-64 32v0h-32c-8.837 0-16-7.163-16-16s7.163-16 16-16v0h32c26.51 0 48-21.49 48-48v0-80h-48c-8.837 0-16-7.163-16-16s7.163-16 16-16v0h48v-80c0-26.51-21.49-48-48-48v0h-32c-8.837 0-16-7.163-16-16s7.163-16 16-16v0h32c26.083 0 49.25 12.482 63.854 31.799l0.146 0.201c14.75-19.518 37.917-32 64-32v0h32c8.837 0 16 7.163 16 16s-7.163 16-16 16v0h-32c-26.51 0-48 21.49-48 48v0 80h48c8.837 0 16 7.163 16 16s-7.163 16-16 16v0h-48v80c0 26.51 21.49 48 48 48v0z" />
<glyph unicode="&#xe951;" glyph-name="folder-edit" d="M928 736h-494.848c-0.057 0-0.124 0-0.191 0-17.622 0-33.57 7.169-45.086 18.749l-49.123 49.123c-17.276 17.375-41.196 28.128-67.627 28.128-0.097 0-0.195 0-0.292 0h-174.833c-17.673 0-32-14.327-32-32v0-640c0-17.673 14.327-32 32-32v0h368c8.837 0 16 7.163 16 16s-7.163 16-16 16v0h-368v640h174.848c0.057 0 0.124 0 0.191 0 17.622 0 33.57-7.169 45.086-18.749l49.123-49.123c17.276-17.375 41.196-28.128 67.627-28.128 0.097 0 0.195 0 0.292 0h494.833v-208c0-8.837 7.163-16 16-16s16 7.163 16 16v0 208c0 17.673-14.327 32-32 32v0zM896 624c0 8.837-7.163 16-16 16v0h-736c-8.837 0-16-7.163-16-16s7.163-16 16-16v0h736c8.837 0 16 7.163 16 16v0zM866.688 384c-0.038 0-0.083 0-0.128 0-16.845 0-32.090-6.851-43.102-17.918l-0.002-0.003-208-208c-3.404-3.425-6.046-7.613-7.644-12.285l-0.068-0.227-30.816-92.416c-0.54-1.536-0.852-3.308-0.852-5.152 0-8.81 7.12-15.957 15.92-16h0.004c0.020 0 0.045 0 0.069 0 1.786 0 3.5 0.305 5.095 0.865l-0.108-0.033 92.352 30.784c4.924 1.67 9.134 4.323 12.578 7.746l207.998 207.998c11.127 11.023 18.016 26.307 18.016 43.199 0 0.045 0 0.091 0 0.136v-0.007 0.192c-0.055 33.767-27.441 61.12-61.216 61.12-0.034 0-0.068 0-0.101 0h0.005zM896 322.688c0-0.016 0-0.036 0-0.055 0-8.032-3.266-15.301-8.543-20.552l-208.001-208.001-62.048-20.672 20.704 62.048 208 208c5.289 5.268 12.584 8.526 20.64 8.526 16.102 0 29.164-13.011 29.248-29.094v-0.008z" />
</font>
</defs>
</svg>
